  0
SECTION
  2
HEADER
  9
$ACADVER
  1
AC1015
  9
$DWGCODEPAGE
  3
ANSI_932
  9
$LTSCALE
 40
20.0
  9
$FILLMODE
 70
     1
  9
$CLAYER
  8
0
  9
$PDMODE
 70
     0
  9
$SPLFRAME
 70
     0
  9
$SPLINETYPE
 70
     6
  9
$SPLINESEGS
 70
     8
  9
$DIMASZ
 40
2.000000
  9
$DIMEXE
 40
1.500000
  9
$DIMEXO
 40
0.800000
  9
$DIMTAD
 70
     1
  9
$DIMTIH
 70
     0
  9
$DIMTOH
 70
     0
  9
$DIMTVP
 40
0.500000
  9
$DIMTXT
 40
3.100000
  9
$EXTMIN
 10
0.000000
 20
0.000000
 30
0.000000
  9
$EXTMAX
 10
297.000000
 20
420.000000
 30
0.000000
  9
$MEASUREMENT
 70
  1
  9
$LIMMIN
 10
0.000000
 20
0.000000
  9
$LIMMAX
 10
297.000000
 20
420.000000
  9
$HANDSEED
  5
20F
  9
$LWDISPLAY
290
     0
  9
$DIMBLK
  1
_OPEN
  9
$DIMDEC
 70
     2
  9
$DIMADEC
 70
     2
  9
$DIMAUNIT
 70
     0
  9
$DIMZIN
 70
     8
  9
$DIMAZIN
 70
     2
  9
$DIMTOFL
 70
     1
  0
ENDSEC
  0
SECTION
  2
CLASSES
  0
ENDSEC
  0
SECTION
  2
TABLES
  0
TABLE
  2
VPORT
  5
1C7
100
AcDbSymbolTable
 70
     1
  0
VPORT
  5
1C8
100
AcDbSymbolTableRecord
100
AcDbViewportTableRecord
  2
*ACTIVE
 70
     0
 12
5.750000
 22
163.900000
 40
283.800000
 41
1.203312
  0
ENDTAB
  0
TABLE
  2
LTYPE
  5
1C9
100
AcDbSymbolTable
 70
     3
  0
LTYPE
  5
1CA
100
AcDbSymbolTableRecord
100
AcDbLinetypeTableRecord
  2
BYBLOCK
 70
     0
  3

 72
    65
 73
     0
 40
0.0
  0
LTYPE
  5
1CB
100
AcDbSymbolTableRecord
100
AcDbLinetypeTableRecord
  2
BYLAYER
 70
     0
  3

 72
    65
 73
     0
 40
0.0
  0
LTYPE
  5
1CC
100
AcDbSymbolTableRecord
100
AcDbLinetypeTableRecord
  2
CONTINUOUS
 70
     0
  3
Solid line (NEC CAE2D for Win R18.0 : 2025.04.10)
 72
    65
 73
     0
 40
0.0
  0
LTYPE
  5
1CD
100
AcDbSymbolTableRecord
100
AcDbLinetypeTableRecord
  2
DASHED
 70
     0
  3
__ __ __ __ __ __ __ __ __ __ __ __ __ _
 72
    65
 73
     2
 40
0.75
 49
0.5
 74
     0
 49
-0.25
 74
     0
  0
LTYPE
  5
1CE
100
AcDbSymbolTableRecord
100
AcDbLinetypeTableRecord
  2
CENTER
 70
     0
  3
____ _ ____ _ ____ _ ____ _ ____ _ ____
 72
    65
 73
     4
 40
2.0
 49
1.25
 74
     0
 49
-0.25
 74
     0
 49
0.25
 74
     0
 49
-0.25
 74
     0
  0
ENDTAB
  0
TABLE
  2
LAYER
  5
1CF
100
AcDbSymbolTable
 70
    19
  0
LAYER
  5
1D0
100
AcDbSymbolTableRecord
100
AcDbLayerTableRecord
  2
0
 70
     0
 62
     7
  6
CONTINUOUS
370
    -3
390

  0
LAYER
  5
1D1
100
AcDbSymbolTableRecord
100
AcDbLayerTableRecord
  2
DXF0
 70
     0
 62
     7
  6
CONTINUOUS
370
    -3
390

  0
LAYER
  5
1D2
100
AcDbSymbolTableRecord
100
AcDbLayerTableRecord
  2
DXF0
 70
     0
 62
     7
  6
CONTINUOUS
370
    -3
390

  0
LAYER
  5
1D3
100
AcDbSymbolTableRecord
100
AcDbLayerTableRecord
  2
A0
 70
     0
 62
     9
  6
CONTINUOUS
370
    -3
390

  0
LAYER
  5
1D4
100
AcDbSymbolTableRecord
100
AcDbLayerTableRecord
  2
A1
 70
     0
 62
     8
  6
CONTINUOUS
370
    -3
390

  0
LAYER
  5
1D5
100
AcDbSymbolTableRecord
100
AcDbLayerTableRecord
  2
A2
 70
     0
 62
    12
  6
CONTINUOUS
370
    -3
390

  0
LAYER
  5
1D6
100
AcDbSymbolTableRecord
100
AcDbLayerTableRecord
  2
A3
 70
     0
 62
    12
  6
CONTINUOUS
370
    -3
390

  0
LAYER
  5
1D7
100
AcDbSymbolTableRecord
100
AcDbLayerTableRecord
  2
A4
 70
     0
 62
     9
  6
CONTINUOUS
370
    -3
390

  0
LAYER
  5
1D8
100
AcDbSymbolTableRecord
100
AcDbLayerTableRecord
  2
A8
 70
     0
 62
    10
  6
CONTINUOUS
370
    -3
390

  0
LAYER
  5
1D9
100
AcDbSymbolTableRecord
100
AcDbLayerTableRecord
  2
A10
 70
     0
 62
     6
  6
CONTINUOUS
370
    -3
390

  0
LAYER
  5
1DA
100
AcDbSymbolTableRecord
100
AcDbLayerTableRecord
  2
A20
 70
     0
 62
     1
  6
CONTINUOUS
370
    -3
390

  0
LAYER
  5
1DB
100
AcDbSymbolTableRecord
100
AcDbLayerTableRecord
  2
A30
 70
     0
 62
     1
  6
CONTINUOUS
370
    -3
390

  0
LAYER
  5
1DC
100
AcDbSymbolTableRecord
100
AcDbLayerTableRecord
  2
A40
 70
     0
 62
     9
  6
CONTINUOUS
370
    -3
390

  0
LAYER
  5
1DD
100
AcDbSymbolTableRecord
100
AcDbLayerTableRecord
  2
A50
 70
     0
 62
    12
  6
CONTINUOUS
370
    -3
390

  0
LAYER
  5
1DE
100
AcDbSymbolTableRecord
100
AcDbLayerTableRecord
  2
A1023
 70
     0
 62
     8
  6
CONTINUOUS
370
    -3
390

  0
LAYER
  5
1DF
100
AcDbSymbolTableRecord
100
AcDbLayerTableRecord
  2
DXF1023
 70
     0
 62
     8
  6
CONTINUOUS
370
    -3
390

  0
LAYER
  5
1E0
100
AcDbSymbolTableRecord
100
AcDbLayerTableRecord
  2
DXF30
 70
     0
 62
    12
  6
CONTINUOUS
370
    -3
390

  0
LAYER
  5
1E1
100
AcDbSymbolTableRecord
100
AcDbLayerTableRecord
  2
DXF40
 70
     0
 62
    11
  6
CONTINUOUS
370
    -3
390

  0
LAYER
  5
1E2
100
AcDbSymbolTableRecord
100
AcDbLayerTableRecord
  2
DXF1023
 70
     0
 62
    16
  6
CONTINUOUS
370
    -3
390

  0
ENDTAB
  0
TABLE
  2
STYLE
  5
1E3
100
AcDbSymbolTable
 70
     4
  0
STYLE
  5
1E4
100
AcDbSymbolTableRecord
100
AcDbTextStyleTableRecord
  2
STANDARD
 70
    64
 40
0.0
 41
1.0
 50
0.0
 71
     0
 42
3.099999904632568
  3
TXT
  4

  0
STYLE
  5
1E5
100
AcDbSymbolTableRecord
100
AcDbTextStyleTableRecord
  2
ANKTATE
 70
    68
 40
0.0
 41
1.0
 50
0.0
 71
     0
 42
3.099999904632568
  3
TXT
  4

  0
STYLE
  5
16C
100
AcDbSymbolTableRecord
100
AcDbTextStyleTableRecord
  2
KNJYOKO
 70
    64
 40
0.0
 41
1.0
 50
0.0
 71
     0
 42
3.099999904632568
  3
TXT
  4
BIGFONT
  0
STYLE
  5
1E6
100
AcDbSymbolTableRecord
100
AcDbTextStyleTableRecord
  2
KNJTATE
 70
    68
 40
0.0
 41
1.0
 50
0.0
 71
     0
 42
3.099999904632568
  3
TXT
  4
BIGFONT
  0
ENDTAB
  0
TABLE
  2
VIEW
  5
1E7
100
AcDbSymbolTable
 70
     0
  0
ENDTAB
  0
TABLE
  2
UCS
  5
1E8
100
AcDbSymbolTable
 70
     0
  0
ENDTAB
  0
TABLE
  2
APPID
  5
1E9
100
AcDbSymbolTable
 70
     1
  0
APPID
  5
1EA
100
AcDbSymbolTableRecord
100
AcDbRegAppTableRecord
  2
ACAD
 70
     0
  0
ENDTAB
  0
TABLE
  2
DIMSTYLE
  5
1EB
100
AcDbSymbolTable
 70
     2
100
AcDbDimStyleTable
  0
DIMSTYLE
105
1EC
100
AcDbSymbolTableRecord
100
AcDbDimStyleTableRecord
  2
STANDARD
 70
     0
 41
2.000000
 44
1.500000
 42
0.800000
145
0.661290
140
3.100000
144
1.000000
146
0.645161
340
1E4
  0
DIMSTYLE
105
1ED
100
AcDbSymbolTableRecord
100
AcDbDimStyleTableRecord
  2
DXF001
 70
     0
 41
2.000000
 44
1.500000
 42
0.800000
145
0.661290
140
3.100000
144
1.000000
146
0.645161
 77
     1
 73
     0
 74
     0
271
     2
179
     2
275
     0
 78
     8
 79
     2
172
     1
340
1E4
  0
ENDTAB
  0
TABLE
  2
BLOCK_RECORD
  5
1EE
100
AcDbSymbolTable
 70
    27
  0
BLOCK_RECORD
  5
1EF
100
AcDbSymbolTableRecord
100
AcDbBlockTableRecord
  2
*MODEL_SPACE
  0
BLOCK_RECORD
  5
1F0
100
AcDbSymbolTableRecord
100
AcDbBlockTableRecord
  2
*PAPER_SPACE
  0
BLOCK_RECORD
  5
1F1
100
AcDbSymbolTableRecord
100
AcDbBlockTableRecord
  2
*PAPER_SPACE0
  0
BLOCK_RECORD
  5
1
100
AcDbSymbolTableRecord
100
AcDbBlockTableRecord
  2
_NONE
  0
BLOCK_RECORD
  5
4
100
AcDbSymbolTableRecord
100
AcDbBlockTableRecord
  2
_CLOSED
  0
BLOCK_RECORD
  5
B
100
AcDbSymbolTableRecord
100
AcDbBlockTableRecord
  2
_DOT
  0
BLOCK_RECORD
  5
13
100
AcDbSymbolTableRecord
100
AcDbBlockTableRecord
  2
_OPEN
  0
BLOCK_RECORD
  5
19
100
AcDbSymbolTableRecord
100
AcDbBlockTableRecord
  2
_ORIGIN
  0
BLOCK_RECORD
  5
1E
100
AcDbSymbolTableRecord
100
AcDbBlockTableRecord
  2
_OPEN30
  0
BLOCK_RECORD
  5
24
100
AcDbSymbolTableRecord
100
AcDbBlockTableRecord
  2
_BOXFILLED
  0
BLOCK_RECORD
  5
29
100
AcDbSymbolTableRecord
100
AcDbBlockTableRecord
  2
_BOXBLANK
  0
BLOCK_RECORD
  5
31
100
AcDbSymbolTableRecord
100
AcDbBlockTableRecord
  2
_OBLIQUE
  0
BLOCK_RECORD
  5
35
100
AcDbSymbolTableRecord
100
AcDbBlockTableRecord
  2
_OPEN90
  0
BLOCK_RECORD
  5
3B
100
AcDbSymbolTableRecord
100
AcDbBlockTableRecord
  2
_CLOSEDBLANK
  0
BLOCK_RECORD
  5
41
100
AcDbSymbolTableRecord
100
AcDbBlockTableRecord
  2
_DOTBLANK
  0
BLOCK_RECORD
  5
1F2
100
AcDbSymbolTableRecord
100
AcDbBlockTableRecord
  2
$$BALLOON$$0
  0
BLOCK_RECORD
  5
1F3
100
AcDbSymbolTableRecord
100
AcDbBlockTableRecord
  2
$$BALLOON$$1
  0
BLOCK_RECORD
  5
1F4
100
AcDbSymbolTableRecord
100
AcDbBlockTableRecord
  2
$$BALLOON$$2
  0
BLOCK_RECORD
  5
1F5
100
AcDbSymbolTableRecord
100
AcDbBlockTableRecord
  2
$$BALLOON$$3
  0
BLOCK_RECORD
  5
1F6
100
AcDbSymbolTableRecord
100
AcDbBlockTableRecord
  2
*D0
  0
BLOCK_RECORD
  5
1F7
100
AcDbSymbolTableRecord
100
AcDbBlockTableRecord
  2
*D1
  0
BLOCK_RECORD
  5
1F8
100
AcDbSymbolTableRecord
100
AcDbBlockTableRecord
  2
*D2
  0
BLOCK_RECORD
  5
1F9
100
AcDbSymbolTableRecord
100
AcDbBlockTableRecord
  2
*D3
  0
BLOCK_RECORD
  5
1FA
100
AcDbSymbolTableRecord
100
AcDbBlockTableRecord
  2
*D4
  0
BLOCK_RECORD
  5
1FB
100
AcDbSymbolTableRecord
100
AcDbBlockTableRecord
  2
*D5
  0
BLOCK_RECORD
  5
1FC
100
AcDbSymbolTableRecord
100
AcDbBlockTableRecord
  2
*D6
  0
BLOCK_RECORD
  5
1FD
100
AcDbSymbolTableRecord
100
AcDbBlockTableRecord
  2
*D7
  0
BLOCK_RECORD
  5
1FE
100
AcDbSymbolTableRecord
100
AcDbBlockTableRecord
  2
*D8
  0
BLOCK_RECORD
  5
1FF
100
AcDbSymbolTableRecord
100
AcDbBlockTableRecord
  2
*D9
  0
BLOCK_RECORD
  5
200
100
AcDbSymbolTableRecord
100
AcDbBlockTableRecord
  2
*D10
  0
ENDTAB
  0
ENDSEC
  0
SECTION
  2
BLOCKS
  0
BLOCK
  5
201
100
AcDbEntity
  8
0
100
AcDbBlockBegin
  2
*MODEL_SPACE
 70
     0
 10
0.0
 20
0.0
 30
0.0
  3
*MODEL_SPACE
  1

  0
ENDBLK
  5
202
100
AcDbEntity
  8
0
100
AcDbBlockEnd
  0
BLOCK
  5
203
100
AcDbEntity
  8
0
100
AcDbBlockBegin
  2
*PAPER_SPACE
 70
     0
 10
0.0
 20
0.0
 30
0.0
  3
*PAPER_SPACE
  1

  0
ENDBLK
  5
204
100
AcDbEntity
  8
0
100
AcDbBlockEnd
  0
BLOCK
  5
205
100
AcDbEntity
  8
0
100
AcDbBlockBegin
  2
*PAPER_SPACE0
 70
     0
 10
0.0
 20
0.0
 30
0.0
  3
*PAPER_SPACE0
  1

  0
ENDBLK
  5
206
100
AcDbEntity
  8
0
100
AcDbBlockEnd
  0
BLOCK
  5
2
330
1
100
AcDbEntity
  8
0
100
AcDbBlockBegin
  2
_NONE
 70
     0
 10
0.0
 20
0.0
 30
0.0
  3
_NONE
  1

  0
ENDBLK
  5
3
330
1
100
AcDbEntity
  8
0
100
AcDbBlockEnd
  0
BLOCK
  5
5
330
4
100
AcDbEntity
  8
0
100
AcDbBlockBegin
  2
_CLOSED
 70
     0
 10
0.0
 20
0.0
 30
0.0
  3
_CLOSED
  1

  0
LINE
  5
6
330
4
100
AcDbEntity
  8
0
  6
BYBLOCK
 62
     0
370
    -2
100
AcDbLine
 10
-1.0
 20
0.166667
 30
0.0
 11
0.0
 21
0.0
 31
0.0
  0
LINE
  5
7
330
4
100
AcDbEntity
  8
0
  6
BYBLOCK
 62
     0
370
    -2
100
AcDbLine
 10
0.0
 20
0.0
 30
0.0
 11
-1.0
 21
-0.166667
 31
0.0
  0
LINE
  5
8
330
4
100
AcDbEntity
  8
0
  6
BYBLOCK
 62
     0
370
    -2
100
AcDbLine
 10
-1.0
 20
0.166667
 30
0.0
 11
-1.0
 21
-0.166667
 31
0.0
  0
LINE
  5
9
330
4
100
AcDbEntity
  8
0
  6
BYBLOCK
 62
     0
370
    -2
100
AcDbLine
 10
0.0
 20
0.0
 30
0.0
 11
-1.0
 21
0.0
 31
0.0
  0
ENDBLK
  5
A
330
4
100
AcDbEntity
  8
0
100
AcDbBlockEnd
  0
BLOCK
  5
C
330
B
100
AcDbEntity
  8
0
100
AcDbBlockBegin
  2
_DOT
 70
     0
 10
0.0
 20
0.0
 30
0.0
  3
_DOT
  1

  0
POLYLINE
  5
D
330
B
100
AcDbEntity
  8
0
  6
BYBLOCK
 62
     0
370
    -2
100
AcDb2dPolyline
 66
     1
 10
0.0
 20
0.0
 30
0.0
 70
     1
 40
0.5
 41
0.5
  0
VERTEX
  5
E
330
B
100
AcDbEntity
  8
0
  6
BYBLOCK
 62
     0
370
    -2
100
AcDbVertex
100
AcDb2dVertex
 10
-0.25
 20
0.0
 30
0.0
 42
1.0
  0
VERTEX
  5
F
330
B
100
AcDbEntity
  8
0
  6
BYBLOCK
 62
     0
370
    -2
100
AcDbVertex
100
AcDb2dVertex
 10
0.25
 20
0.0
 30
0.0
 42
1.0
  0
SEQEND
  5
10
330
B
100
AcDbEntity
  8
0
  6
BYBLOCK
 62
     0
370
    -2
  0
LINE
  5
11
330
B
100
AcDbEntity
  8
0
  6
BYBLOCK
 62
     0
370
    -2
100
AcDbLine
 10
-0.5
 20
0.0
 30
0.0
 11
-1.0
 21
0.0
 31
0.0
  0
ENDBLK
  5
12
330
B
100
AcDbEntity
  8
0
100
AcDbBlockEnd
  0
BLOCK
  5
14
330
13
100
AcDbEntity
  8
0
100
AcDbBlockBegin
  2
_OPEN
 70
     0
 10
0.0
 20
0.0
 30
0.0
  3
_OPEN
  1

  0
LINE
  5
15
330
13
100
AcDbEntity
  8
0
  6
BYBLOCK
 62
     0
370
    -2
100
AcDbLine
 10
-1.0
 20
0.166667
 30
0.0
 11
0.0
 21
0.0
 31
0.0
  0
LINE
  5
16
330
13
100
AcDbEntity
  8
0
  6
BYBLOCK
 62
     0
370
    -2
100
AcDbLine
 10
0.0
 20
0.0
 30
0.0
 11
-1.0
 21
-0.166667
 31
0.0
  0
LINE
  5
17
330
13
100
AcDbEntity
  8
0
  6
BYBLOCK
 62
     0
370
    -2
100
AcDbLine
 10
0.0
 20
0.0
 30
0.0
 11
-1.0
 21
0.0
 31
0.0
  0
ENDBLK
  5
18
330
13
100
AcDbEntity
  8
0
100
AcDbBlockEnd
  0
BLOCK
  5
1A
330
19
100
AcDbEntity
  8
0
100
AcDbBlockBegin
  2
_ORIGIN
 70
     0
 10
0.0
 20
0.0
 30
0.0
  3
_ORIGIN
  1

  0
CIRCLE
  5
1B
330
19
100
AcDbEntity
  8
0
  6
BYBLOCK
 62
     0
370
    -2
100
AcDbCircle
 10
0.0
 20
0.0
 30
0.0
 40
0.5
  0
LINE
  5
1C
330
19
100
AcDbEntity
  8
0
  6
BYBLOCK
 62
     0
370
    -2
100
AcDbLine
 10
0.0
 20
0.0
 30
0.0
 11
-1.0
 21
0.0
 31
0.0
  0
ENDBLK
  5
1D
330
19
100
AcDbEntity
  8
0
100
AcDbBlockEnd
  0
BLOCK
  5
1F
330
1E
100
AcDbEntity
  8
0
100
AcDbBlockBegin
  2
_OPEN30
 70
     0
 10
0.0
 20
0.0
 30
0.0
  3
_OPEN30
  1

  0
LINE
  5
20
330
1E
100
AcDbEntity
  8
0
  6
BYBLOCK
 62
     0
370
    -2
100
AcDbLine
 10
-1.0
 20
0.267949
 30
0.0
 11
0.0
 21
0.0
 31
0.0
  0
LINE
  5
21
330
1E
100
AcDbEntity
  8
0
  6
BYBLOCK
 62
     0
370
    -2
100
AcDbLine
 10
0.0
 20
0.0
 30
0.0
 11
-1.0
 21
-0.267949
 31
0.0
  0
LINE
  5
22
330
1E
100
AcDbEntity
  8
0
  6
BYBLOCK
 62
     0
370
    -2
100
AcDbLine
 10
0.0
 20
0.0
 30
0.0
 11
-1.0
 21
0.0
 31
0.0
  0
ENDBLK
  5
23
330
1E
100
AcDbEntity
  8
0
100
AcDbBlockEnd
  0
BLOCK
  5
25
330
24
100
AcDbEntity
  8
0
100
AcDbBlockBegin
  2
_BOXFILLED
 70
     0
 10
0.0
 20
0.0
 30
0.0
  3
_BOXFILLED
  1

  0
SOLID
  5
26
330
24
100
AcDbEntity
  8
0
  6
BYBLOCK
 62
     0
370
    -2
100
AcDbTrace
 10
-0.5
 20
0.5
 30
0.0
 11
0.5
 21
0.5
 31
0.0
 12
-0.5
 22
-0.5
 32
0.0
 13
0.5
 23
-0.5
 33
0.0
  0
LINE
  5
27
330
24
100
AcDbEntity
  8
0
  6
BYBLOCK
 62
     0
370
    -2
100
AcDbLine
 10
-0.5
 20
0.0
 30
0.0
 11
-1.0
 21
0.0
 31
0.0
  0
ENDBLK
  5
28
330
24
100
AcDbEntity
  8
0
100
AcDbBlockEnd
  0
BLOCK
  5
2A
330
29
100
AcDbEntity
  8
0
100
AcDbBlockBegin
  2
_BOXBLANK
 70
     0
 10
0.0
 20
0.0
 30
0.0
  3
_BOXBLANK
  1

  0
LINE
  5
2B
330
29
100
AcDbEntity
  8
0
  6
BYBLOCK
 62
     0
370
    -2
100
AcDbLine
 10
-0.5
 20
-0.5
 30
0.0
 11
0.5
 21
-0.5
 31
0.0
  0
LINE
  5
2C
330
29
100
AcDbEntity
  8
0
  6
BYBLOCK
 62
     0
370
    -2
100
AcDbLine
 10
0.5
 20
-0.5
 30
0.0
 11
0.5
 21
0.5
 31
0.0
  0
LINE
  5
2D
330
29
100
AcDbEntity
  8
0
  6
BYBLOCK
 62
     0
370
    -2
100
AcDbLine
 10
0.5
 20
0.5
 30
0.0
 11
-0.5
 21
0.5
 31
0.0
  0
LINE
  5
2E
330
29
100
AcDbEntity
  8
0
  6
BYBLOCK
 62
     0
370
    -2
100
AcDbLine
 10
-0.5
 20
0.5
 30
0.0
 11
-0.5
 21
-0.5
 31
0.0
  0
LINE
  5
2F
330
29
100
AcDbEntity
  8
0
  6
BYBLOCK
 62
     0
370
    -2
100
AcDbLine
 10
-0.5
 20
0.0
 30
0.0
 11
-1.0
 21
0.0
 31
0.0
  0
ENDBLK
  5
30
330
29
100
AcDbEntity
  8
0
100
AcDbBlockEnd
  0
BLOCK
  5
32
330
31
100
AcDbEntity
  8
0
100
AcDbBlockBegin
  2
_OBLIQUE
 70
     0
 10
0.0
 20
0.0
 30
0.0
  3
_OBLIQUE
  1

  0
LINE
  5
33
330
31
100
AcDbEntity
  8
0
  6
BYBLOCK
 62
     0
370
    -2
100
AcDbLine
 10
-0.5
 20
-0.5
 30
0.0
 11
0.5
 21
0.5
 31
0.0
  0
ENDBLK
  5
34
330
31
100
AcDbEntity
  8
0
100
AcDbBlockEnd
  0
BLOCK
  5
36
330
35
100
AcDbEntity
  8
0
100
AcDbBlockBegin
  2
_OPEN90
 70
     0
 10
0.0
 20
0.0
 30
0.0
  3
_OPEN90
  1

  0
LINE
  5
37
330
35
100
AcDbEntity
  8
0
  6
BYBLOCK
 62
     0
370
    -2
100
AcDbLine
 10
-0.5
 20
0.5
 30
0.0
 11
0.0
 21
0.0
 31
0.0
  0
LINE
  5
38
330
35
100
AcDbEntity
  8
0
  6
BYBLOCK
 62
     0
370
    -2
100
AcDbLine
 10
0.0
 20
0.0
 30
0.0
 11
-0.5
 21
-0.5
 31
0.0
  0
LINE
  5
39
330
35
100
AcDbEntity
  8
0
  6
BYBLOCK
 62
     0
370
    -2
100
AcDbLine
 10
0.0
 20
0.0
 30
0.0
 11
-1.0
 21
0.0
 31
0.0
  0
ENDBLK
  5
3A
330
35
100
AcDbEntity
  8
0
100
AcDbBlockEnd
  0
BLOCK
  5
3C
330
3B
100
AcDbEntity
  8
0
100
AcDbBlockBegin
  2
_CLOSEDBLANK
 70
     0
 10
0.0
 20
0.0
 30
0.0
  3
_CLOSEDBLANK
  1

  0
LINE
  5
3D
330
3B
100
AcDbEntity
  8
0
  6
BYBLOCK
 62
     0
370
    -2
100
AcDbLine
 10
-1.0
 20
0.1666666666666666
 30
0.0
 11
0.0
 21
0.0
 31
0.0
  0
LINE
  5
3E
330
3B
100
AcDbEntity
  8
0
  6
BYBLOCK
 62
     0
370
    -2
100
AcDbLine
 10
0.0
 20
0.0
 30
0.0
 11
-1.0
 21
-0.1666666666666666
 31
0.0
  0
LINE
  5
3F
330
3B
100
AcDbEntity
  8
0
  6
BYBLOCK
 62
     0
370
    -2
100
AcDbLine
 10
-1.0
 20
0.1666666666666666
 30
0.0
 11
-1.0
 21
-0.1666666666666666
 31
0.0
  0
ENDBLK
  5
40
330
3B
100
AcDbEntity
  8
0
100
AcDbBlockEnd
  0
BLOCK
  5
42
330
41
100
AcDbEntity
  8
0
100
AcDbBlockBegin
  2
_DOTBLANK
 70
     0
 10
0.0
 20
0.0
 30
0.0
  3
_DOTBLANK
  1

  0
CIRCLE
  5
43
330
41
100
AcDbEntity
  8
0
  6
BYBLOCK
 62
     0
370
    -2
100
AcDbCircle
 10
0.0
 20
0.0
 30
0.0
 40
0.5
  0
LINE
  5
44
330
41
100
AcDbEntity
  8
0
  6
BYBLOCK
 62
     0
370
    -2
100
AcDbLine
 10
-0.5
 20
0.0
 30
0.0
 11
-1.0
 21
0.0
 31
0.0
  0
ENDBLK
  5
45
330
41
100
AcDbEntity
  8
0
100
AcDbBlockEnd
  0
BLOCK
  5
149
100
AcDbEntity
  8
DXF40
  6
BYBLOCK
 62
3
100
AcDbBlockBegin
  2
$$BALLOON$$0
 70
    64
 10
0.0
 20
0.0
 30
0.0
  0
LEADER
  5
14A
100
AcDbEntity
  8
DXF40
  6
BYBLOCK
 62
0
370
    -2
100
AcDbLeader
  3
DXF001
 73
     0
 75
     0
 40
0.000000000000000
 41
0.000000000000000
 76
     2
 10
5.048709793414476e-29
 20
-5.048709793414476e-29
 30
0.000000000000000
 10
-2.527148440859518
 20
21.22804690322104
 30
0.000000000000000
340
14B
213
0.4728515591405387
223
-3.971953096779732
233
0.000000000000000
1001
ACAD
1000
DSTYLE
1002
{
1070
   147
1040
0.0
1070
    77
1070
     0
1070
   341
1005
13
1070
    41
1040
2.000000
1002
}
  0
MTEXT
  5
14B
102
{ACAD_REACTORS
330
14A
102
}
100
AcDbEntity
  8
DXF40
  6
BYBLOCK
 62
0
370
    -2
100
AcDbMText
 10
-3.000000000000057
 20
25.20000000000077
 30
0.000000000000000
 40
4.000000000000000
 41
0.000000000000000
 44
0.6749999999999999
 71
     5
 72
     1
  1
{\H0.81x;2}
 11
1.000000000000000
 21
0.000000000000000
 31
0.000000000000000
  7
STANDARD
  0
CIRCLE
  5
14C
100
AcDbEntity
  8
DXF40
  6
BYBLOCK
 62
0
370
    -2
100
AcDbCircle
 10
-3.000000000000057
 20
25.20000000000077
 30
0.000000000000000
 40
4.000000000000000
  0
ENDBLK
  5
14D
100
AcDbEntity
  8
DXF40
  6
BYBLOCK
 62
3
100
AcDbBlockEnd
  0
BLOCK
  5
14F
100
AcDbEntity
  8
DXF40
  6
BYBLOCK
 62
3
100
AcDbBlockBegin
  2
$$BALLOON$$1
 70
    64
 10
0.0
 20
0.0
 30
0.0
  0
LEADER
  5
150
100
AcDbEntity
  8
DXF40
  6
BYBLOCK
 62
0
370
    -2
100
AcDbLeader
  3
DXF001
 73
     0
 75
     0
 40
0.000000000000000
 41
0.000000000000000
 76
     2
 10
0.000000000000000
 20
-2.524354896707238e-29
 30
0.000000000000000
 10
-3.940359242092415
 20
14.34290764121686
 30
0.000000000000000
340
151
213
1.059640757907344
223
-3.857092358782955
233
0.000000000000000
1001
ACAD
1000
DSTYLE
1002
{
1070
   147
1040
0.0
1070
    77
1070
     0
1070
   341
1005
B
1070
    41
1040
1.000000
1002
}
  0
MTEXT
  5
151
102
{ACAD_REACTORS
330
150
102
}
100
AcDbEntity
  8
DXF40
  6
BYBLOCK
 62
0
370
    -2
100
AcDbMText
 10
-4.999999999999758
 20
18.19999999999982
 30
0.000000000000000
 40
4.000000000000000
 41
0.000000000000000
 44
0.6749999999999999
 71
     5
 72
     1
  1
{\H0.81x;4}
 11
1.000000000000000
 21
0.000000000000000
 31
0.000000000000000
  7
STANDARD
  0
CIRCLE
  5
152
100
AcDbEntity
  8
DXF40
  6
BYBLOCK
 62
0
370
    -2
100
AcDbCircle
 10
-4.999999999999758
 20
18.19999999999982
 30
0.000000000000000
 40
4.000000000000000
  0
ENDBLK
  5
153
100
AcDbEntity
  8
DXF40
  6
BYBLOCK
 62
3
100
AcDbBlockEnd
  0
BLOCK
  5
155
100
AcDbEntity
  8
DXF40
  6
BYBLOCK
 62
3
100
AcDbBlockBegin
  2
$$BALLOON$$2
 70
    64
 10
0.0
 20
0.0
 30
0.0
  0
LEADER
  5
156
100
AcDbEntity
  8
DXF40
  6
BYBLOCK
 62
0
370
    -2
100
AcDbLeader
  3
DXF001
 73
     0
 74
     0
 75
     0
 40
0.000000000000000
 41
0.000000000000000
 76
     2
 10
-5.048709793414476e-29
 20
0.000000000000000
 30
0.000000000000000
 10
2.527148440859973
 20
21.22804690321973
 30
0.000000000000000
340
157
213
-0.4728515591404814
223
-3.971953096779696
233
0.000000000000000
1001
ACAD
1000
DSTYLE
1002
{
1070
   147
1040
0.0
1070
    77
1070
     0
1070
   341
1005
13
1070
    41
1040
2.000000
1002
}
  0
MTEXT
  5
157
102
{ACAD_REACTORS
330
156
102
}
100
AcDbEntity
  8
DXF40
  6
BYBLOCK
 62
0
370
    -2
100
AcDbMText
 10
3.000000000000455
 20
25.19999999999942
 30
0.000000000000000
 40
4.000000000000000
 41
0.000000000000000
 44
0.6749999999999999
 71
     5
 72
     1
  1
{\H0.81x;1}
 11
1.000000000000000
 21
0.000000000000000
 31
0.000000000000000
  7
STANDARD
  0
CIRCLE
  5
158
100
AcDbEntity
  8
DXF40
  6
BYBLOCK
 62
0
370
    -2
100
AcDbCircle
 10
3.000000000000455
 20
25.19999999999942
 30
0.000000000000000
 40
4.000000000000000
  0
ENDBLK
  5
159
100
AcDbEntity
  8
DXF40
  6
BYBLOCK
 62
3
100
AcDbBlockEnd
  0
BLOCK
  5
15B
100
AcDbEntity
  8
DXF40
  6
BYBLOCK
 62
3
100
AcDbBlockBegin
  2
$$BALLOON$$3
 70
    64
 10
0.0
 20
0.0
 30
0.0
  0
LEADER
  5
15C
100
AcDbEntity
  8
DXF40
  6
BYBLOCK
 62
0
370
    -2
100
AcDbLeader
  3
DXF001
 73
     0
 75
     0
 40
0.000000000000000
 41
0.000000000000000
 76
     2
 10
0.000000000000000
 20
0.000000000000000
 30
0.000000000000000
 10
-2.467611258052236
 20
18.37497081616453
 30
0.000000000000000
340
15D
213
0.5323887419477784
223
-3.964411964900652
233
0.000000000000000
1001
ACAD
1000
DSTYLE
1002
{
1070
   147
1040
0.0
1070
    77
1070
     0
1070
   341
1005
13
1070
    41
1040
2.000000
1002
}
  0
MTEXT
  5
15D
102
{ACAD_REACTORS
330
15C
102
}
100
AcDbEntity
  8
DXF40
  6
BYBLOCK
 62
0
370
    -2
100
AcDbMText
 10
-3.000000000000014
 20
22.33938278106519
 30
0.000000000000000
 40
4.000000000000000
 41
0.000000000000000
 44
0.6749999999999999
 71
     5
 72
     1
  1
{\H0.81x;3}
 11
1.000000000000000
 21
0.000000000000000
 31
0.000000000000000
  7
STANDARD
  0
CIRCLE
  5
15E
100
AcDbEntity
  8
DXF40
  6
BYBLOCK
 62
0
370
    -2
100
AcDbCircle
 10
-3.000000000000014
 20
22.33938278106519
 30
0.000000000000000
 40
4.000000000000000
  0
ENDBLK
  5
15F
100
AcDbEntity
  8
DXF40
  6
BYBLOCK
 62
3
100
AcDbBlockEnd
  0
BLOCK
  5
161
100
AcDbEntity
  8
DXF30
  6
CONTINUOUS
 62
3
100
AcDbBlockBegin
  2
*D0
 70
    65
 10
0.0
 20
0.0
 30
0.0
  0
LINE
  5
162
100
AcDbEntity
  8
DXF30
  6
BYBLOCK
 62
0
370
    -2
100
AcDbLine
 10
155.8000000119210
 20
27.99999999999999
 30
0.000000000000000
 11
166.5000000000049
 21
27.99999999999999
 31
0.000000000000000
  0
LINE
  5
163
100
AcDbEntity
  8
DXF30
  6
BYBLOCK
 62
0
370
    -2
100
AcDbLine
 10
165.0000000000049
 20
27.99999999999999
 30
0.000000000000000
 11
165.0000000000049
 21
25.00000000000010
 31
0.000000000000000
  0
INSERT
  5
164
100
AcDbEntity
  8
DXF30
  6
BYBLOCK
 62
0
100
AcDbBlockReference
  2
_OPEN
 10
165.0000000000049
 20
27.99999999999999
 30
0.000000000000000
 41
2.000000000000000
 42
2.000000000000000
 43
2.000000000000000
 50
270.0000000000000
  0
INSERT
  5
165
100
AcDbEntity
  8
DXF30
  6
BYBLOCK
 62
0
100
AcDbBlockReference
  2
_OPEN
 10
165.0000000000049
 20
25.00000000000010
 30
0.000000000000000
 41
2.000000000000000
 42
2.000000000000000
 43
2.000000000000000
 50
90.00000000000000
  0
LINE
  5
166
100
AcDbEntity
  8
DXF30
  6
BYBLOCK
 62
0
370
    -2
100
AcDbLine
 10
165.0000000000049
 20
29.99999999999999
 30
0.000000000000000
 11
165.0000000000049
 21
36.63500022888182
 31
0.000000000000000
  0
LINE
  5
167
100
AcDbEntity
  8
DXF30
  6
BYBLOCK
 62
0
370
    -2
100
AcDbLine
 10
165.0000000000049
 20
23.00000000000010
 30
0.000000000000000
 11
165.0000000000049
 21
22.00000000000010
 31
0.000000000000000
  0
LINE
  5
168
100
AcDbEntity
  8
DXF30
  6
BYBLOCK
 62
0
370
    -2
100
AcDbLine
 10
155.8000000119210
 20
25.00000000000010
 30
0.000000000000000
 11
166.5000000000049
 21
25.00000000000010
 31
0.000000000000000
  0
MTEXT
  5
169
100
AcDbEntity
  8
DXF30
  6
BYBLOCK
 62
0
100
AcDbMText
 10
162.9500000476886
 20
33.50000000000010
 30
0.000000000000000
 40
3.099999904632568
 41
0.000000000000000
 44
0.6677419652551825
 71
     5
 72
     1
  1
\A1;ｔ3
 11
6.123233995736766e-17
 21
1.000000000000000
 31
0.000000000000000
  7
KNJYOKO
  0
ENDBLK
  5
16A
100
AcDbEntity
  8
DXF30
  6
CONTINUOUS
 62
3
100
AcDbBlockEnd
  0
BLOCK
  5
16D
100
AcDbEntity
  8
DXF30
  6
CONTINUOUS
 62
3
100
AcDbBlockBegin
  2
*D1
 70
    65
 10
0.0
 20
0.0
 30
0.0
  0
LINE
  5
16E
100
AcDbEntity
  8
DXF30
  6
BYBLOCK
 62
0
370
    -2
100
AcDbLine
 10
123.6838758131565
 20
28.22272358374585
 30
0.000000000000000
 11
126.3161241868531
 21
35.77727641625501
 31
0.000000000000000
  0
INSERT
  5
16F
100
AcDbEntity
  8
DXF30
  6
BYBLOCK
 62
0
100
AcDbBlockReference
  2
_OPEN
 10
123.6838758131565
 20
28.22272358374585
 30
0.000000000000000
 41
2.000000000000000
 42
2.000000000000000
 43
2.000000000000000
 50
70.79002547023858
  0
INSERT
  5
170
100
AcDbEntity
  8
DXF30
  6
BYBLOCK
 62
0
100
AcDbBlockReference
  2
_OPEN
 10
126.3161241868531
 20
35.77727641625501
 30
0.000000000000000
 41
2.000000000000000
 42
2.000000000000000
 43
2.000000000000000
 50
250.7900254702386
  0
LINE
  5
171
100
AcDbEntity
  8
DXF30
  6
BYBLOCK
 62
0
370
    -2
100
AcDbLine
 10
123.0258137197323
 20
26.33408537561857
 30
0.000000000000000
 11
122.6967826730202
 21
25.38976627155493
 31
0.000000000000000
  0
LINE
  5
172
100
AcDbEntity
  8
DXF30
  6
BYBLOCK
 62
0
370
    -2
100
AcDbLine
 10
126.9741862802772
 20
37.66591462438228
 30
0.000000000000000
 11
127.3032173269893
 21
38.61023372844592
 31
0.000000000000000
  0
LINE
  5
173
100
AcDbEntity
  8
DXF30
  6
BYBLOCK
 62
0
370
    -2
100
AcDbLine
 10
126.3161241868530
 20
35.77727641625502
 30
0.000000000000000
 11
135.0000000000048
 21
60.70000000000046
 31
0.000000000000000
  0
LINE
  5
174
100
AcDbEntity
  8
DXF30
  6
BYBLOCK
 62
0
370
    -2
100
AcDbLine
 10
135.0000000000048
 20
60.70000000000051
 30
0.000000000000000
 11
143.2700001597451
 21
60.70000000000051
 31
0.000000000000000
  0
MTEXT
  5
175
100
AcDbEntity
  8
DXF30
  6
BYBLOCK
 62
0
100
AcDbMText
 10
139.1350000798749
 20
62.74999995231680
 30
0.000000000000000
 40
3.099999904632568
 41
0.000000000000000
 44
0.6677419652551825
 71
     5
 72
     1
  1
\A1;\U+22058
 11
1.000000000000000
 21
0.000000000000000
 31
0.000000000000000
  7
STANDARD
  0
ENDBLK
  5
176
100
AcDbEntity
  8
DXF30
  6
CONTINUOUS
 62
3
100
AcDbBlockEnd
  0
BLOCK
  5
178
100
AcDbEntity
  8
DXF30
  6
CONTINUOUS
 62
3
100
AcDbBlockBegin
  2
*D2
 70
    65
 10
0.0
 20
0.0
 30
0.0
  0
LINE
  5
179
100
AcDbEntity
  8
DXF30
  6
BYBLOCK
 62
0
370
    -2
100
AcDbLine
 10
104.0000000000148
 20
246.7500000119214
 30
0.000000000000000
 11
104.0000000000148
 21
293.7000000000006
 31
0.000000000000000
  0
LINE
  5
17A
100
AcDbEntity
  8
DXF30
  6
BYBLOCK
 62
0
370
    -2
100
AcDbLine
 10
106.0000000000148
 20
292.2000000000006
 30
0.000000000000000
 11
123.0000000000049
 21
292.2000000000006
 31
0.000000000000000
  0
INSERT
  5
17B
100
AcDbEntity
  8
DXF30
  6
BYBLOCK
 62
0
100
AcDbBlockReference
  2
_OPEN
 10
104.0000000000148
 20
292.2000000000006
 30
0.000000000000000
 41
2.000000000000000
 42
2.000000000000000
 43
2.000000000000000
 50
180.0000000000000
  0
INSERT
  5
17C
100
AcDbEntity
  8
DXF30
  6
BYBLOCK
 62
0
100
AcDbBlockReference
  2
_OPEN
 10
125.0000000000049
 20
292.2000000000006
 30
0.000000000000000
 41
2.000000000000000
 42
2.000000000000000
 43
2.000000000000000
 50
0.000000000000000
  0
LINE
  5
17D
100
AcDbEntity
  8
DXF30
  6
BYBLOCK
 62
0
370
    -2
100
AcDbLine
 10
125.0000000000048
 20
284.5000000119215
 30
0.000000000000000
 11
125.0000000000048
 21
293.7000000000006
 31
0.000000000000000
  0
MTEXT
  5
17E
100
AcDbEntity
  8
DXF30
  6
BYBLOCK
 62
0
100
AcDbMText
 10
114.5000000000098
 20
294.2499999523168
 30
0.000000000000000
 40
3.099999904632568
 41
0.000000000000000
 44
0.6677419652551825
 71
     5
 72
     1
  1
\A1;21
 11
1.000000000000000
 21
0.000000000000000
 31
0.000000000000000
  7
STANDARD
  0
ENDBLK
  5
17F
100
AcDbEntity
  8
DXF30
  6
CONTINUOUS
 62
3
100
AcDbBlockEnd
  0
BLOCK
  5
181
100
AcDbEntity
  8
DXF30
  6
CONTINUOUS
 62
3
100
AcDbBlockBegin
  2
*D3
 70
    65
 10
0.0
 20
0.0
 30
0.0
  0
LINE
  5
182
100
AcDbEntity
  8
DXF30
  6
BYBLOCK
 62
0
370
    -2
100
AcDbLine
 10
145.9999999999944
 20
256.7500000119214
 30
0.000000000000000
 11
145.9999999999944
 21
293.7000000000006
 31
0.000000000000000
  0
LINE
  5
183
100
AcDbEntity
  8
DXF30
  6
BYBLOCK
 62
0
370
    -2
100
AcDbLine
 10
143.9999999999944
 20
292.2000000000006
 30
0.000000000000000
 11
127.0000000000048
 21
292.2000000000006
 31
0.000000000000000
  0
INSERT
  5
184
100
AcDbEntity
  8
DXF30
  6
BYBLOCK
 62
0
100
AcDbBlockReference
  2
_OPEN
 10
145.9999999999944
 20
292.2000000000006
 30
0.000000000000000
 41
2.000000000000000
 42
2.000000000000000
 43
2.000000000000000
 50
360.0000000000000
  0
INSERT
  5
185
100
AcDbEntity
  8
DXF30
  6
BYBLOCK
 62
0
100
AcDbBlockReference
  2
_OPEN
 10
125.0000000000048
 20
292.2000000000006
 30
0.000000000000000
 41
2.000000000000000
 42
2.000000000000000
 43
2.000000000000000
 50
180.0000000000000
  0
LINE
  5
186
100
AcDbEntity
  8
DXF30
  6
BYBLOCK
 62
0
370
    -2
100
AcDbLine
 10
125.0000000000048
 20
284.5000000119215
 30
0.000000000000000
 11
125.0000000000048
 21
293.7000000000006
 31
0.000000000000000
  0
MTEXT
  5
187
100
AcDbEntity
  8
DXF30
  6
BYBLOCK
 62
0
100
AcDbMText
 10
135.4999999999996
 20
294.2499999523169
 30
0.000000000000000
 40
3.099999904632568
 41
0.000000000000000
 44
0.6677419652551825
 71
     5
 72
     1
  1
\A1;21
 11
1.000000000000000
 21
0.000000000000000
 31
0.000000000000000
  7
STANDARD
  0
ENDBLK
  5
188
100
AcDbEntity
  8
DXF30
  6
CONTINUOUS
 62
3
100
AcDbBlockEnd
  0
BLOCK
  5
18A
100
AcDbEntity
  8
DXF30
  6
CONTINUOUS
 62
3
100
AcDbBlockBegin
  2
*D4
 70
    65
 10
0.0
 20
0.0
 30
0.0
  0
LINE
  5
18B
100
AcDbEntity
  8
DXF30
  6
BYBLOCK
 62
0
370
    -2
100
AcDbLine
 10
97.19999998808373
 20
280.2000000000005
 30
0.000000000000000
 11
83.50000000000455
 21
280.2000000000005
 31
0.000000000000000
  0
LINE
  5
18C
100
AcDbEntity
  8
DXF30
  6
BYBLOCK
 62
0
370
    -2
100
AcDbLine
 10
85.00000000000455
 20
278.2000000000005
 30
0.000000000000000
 11
85.00000000000455
 21
242.2000000000005
 31
0.000000000000000
  0
INSERT
  5
18D
100
AcDbEntity
  8
DXF30
  6
BYBLOCK
 62
0
100
AcDbBlockReference
  2
_OPEN
 10
85.00000000000455
 20
280.2000000000005
 30
0.000000000000000
 41
2.000000000000000
 42
2.000000000000000
 43
2.000000000000000
 50
90.00000000000000
  0
INSERT
  5
18E
100
AcDbEntity
  8
DXF30
  6
BYBLOCK
 62
0
100
AcDbBlockReference
  2
_OPEN
 10
85.00000000000455
 20
240.2000000000005
 30
0.000000000000000
 41
2.000000000000000
 42
2.000000000000000
 43
2.000000000000000
 50
270.0000000000000
  0
LINE
  5
18F
100
AcDbEntity
  8
DXF30
  6
BYBLOCK
 62
0
370
    -2
100
AcDbLine
 10
97.44999998809385
 20
240.2000000000005
 30
0.000000000000000
 11
83.50000000000455
 21
240.2000000000005
 31
0.000000000000000
  0
MTEXT
  5
190
100
AcDbEntity
  8
DXF30
  6
BYBLOCK
 62
0
100
AcDbMText
 10
82.95000004768826
 20
260.2000000000005
 30
0.000000000000000
 40
3.099999904632568
 41
0.000000000000000
 44
0.6677419652551825
 71
     5
 72
     1
  1
\A1;40
 11
6.123233995736766e-17
 21
1.000000000000000
 31
0.000000000000000
  7
STANDARD
  0
ENDBLK
  5
191
100
AcDbEntity
  8
DXF30
  6
CONTINUOUS
 62
3
100
AcDbBlockEnd
  0
BLOCK
  5
193
100
AcDbEntity
  8
DXF30
  6
CONTINUOUS
 62
3
100
AcDbBlockBegin
  2
*D5
 70
    65
 10
0.0
 20
0.0
 30
0.0
  0
LINE
  5
194
100
AcDbEntity
  8
DXF30
  6
BYBLOCK
 62
0
370
    -2
100
AcDbLine
 10
97.44999998809385
 20
240.2000000000005
 30
0.000000000000000
 11
83.50000000000455
 21
240.2000000000005
 31
0.000000000000000
  0
LINE
  5
195
100
AcDbEntity
  8
DXF30
  6
BYBLOCK
 62
0
370
    -2
100
AcDbLine
 10
85.00000000000455
 20
238.2000000000005
 30
0.000000000000000
 11
85.00000000000455
 21
122.2000000000005
 31
0.000000000000000
  0
INSERT
  5
196
100
AcDbEntity
  8
DXF30
  6
BYBLOCK
 62
0
100
AcDbBlockReference
  2
_OPEN
 10
85.00000000000455
 20
240.2000000000005
 30
0.000000000000000
 41
2.000000000000000
 42
2.000000000000000
 43
2.000000000000000
 50
90.00000000000000
  0
INSERT
  5
197
100
AcDbEntity
  8
DXF30
  6
BYBLOCK
 62
0
100
AcDbBlockReference
  2
_OPEN
 10
85.00000000000455
 20
120.2000000000005
 30
0.000000000000000
 41
2.000000000000000
 42
2.000000000000000
 43
2.000000000000000
 50
270.0000000000000
  0
LINE
  5
198
100
AcDbEntity
  8
DXF30
  6
BYBLOCK
 62
0
370
    -2
100
AcDbLine
 10
97.44999998809385
 20
120.2000000000005
 30
0.000000000000000
 11
83.50000000000455
 21
120.2000000000005
 31
0.000000000000000
  0
MTEXT
  5
199
100
AcDbEntity
  8
DXF30
  6
BYBLOCK
 62
0
100
AcDbMText
 10
82.95000004768829
 20
180.2000000000005
 30
0.000000000000000
 40
3.099999904632568
 41
0.000000000000000
 44
0.6677419652551825
 71
     5
 72
     1
  1
\A1;120
 11
6.123233995736766e-17
 21
1.000000000000000
 31
0.000000000000000
  7
STANDARD
  0
ENDBLK
  5
19A
100
AcDbEntity
  8
DXF30
  6
CONTINUOUS
 62
3
100
AcDbBlockEnd
  0
BLOCK
  5
19C
100
AcDbEntity
  8
DXF30
  6
CONTINUOUS
 62
3
100
AcDbBlockBegin
  2
*D6
 70
    65
 10
0.0
 20
0.0
 30
0.0
  0
LINE
  5
19D
100
AcDbEntity
  8
DXF30
  6
BYBLOCK
 62
0
370
    -2
100
AcDbLine
 10
152.8000000119256
 20
280.2000000000005
 30
0.000000000000000
 11
166.5000000000047
 21
280.2000000000005
 31
0.000000000000000
  0
LINE
  5
19E
100
AcDbEntity
  8
DXF30
  6
BYBLOCK
 62
0
370
    -2
100
AcDbLine
 10
165.0000000000047
 20
278.2000000000005
 30
0.000000000000000
 11
165.0000000000047
 21
252.2000000000005
 31
0.000000000000000
  0
INSERT
  5
19F
100
AcDbEntity
  8
DXF30
  6
BYBLOCK
 62
0
100
AcDbBlockReference
  2
_OPEN
 10
165.0000000000047
 20
280.2000000000005
 30
0.000000000000000
 41
2.000000000000000
 42
2.000000000000000
 43
2.000000000000000
 50
90.00000000000000
  0
INSERT
  5
1A0
100
AcDbEntity
  8
DXF30
  6
BYBLOCK
 62
0
100
AcDbBlockReference
  2
_OPEN
 10
165.0000000000047
 20
250.2000000000005
 30
0.000000000000000
 41
2.000000000000000
 42
2.000000000000000
 43
2.000000000000000
 50
270.0000000000000
  0
LINE
  5
1A1
100
AcDbEntity
  8
DXF30
  6
BYBLOCK
 62
0
370
    -2
100
AcDbLine
 10
152.5500000119154
 20
250.2000000000005
 30
0.000000000000000
 11
166.5000000000047
 21
250.2000000000005
 31
0.000000000000000
  0
MTEXT
  5
1A2
100
AcDbEntity
  8
DXF30
  6
BYBLOCK
 62
0
100
AcDbMText
 10
162.9500000476884
 20
265.2000000000005
 30
0.000000000000000
 40
3.099999904632568
 41
0.000000000000000
 44
0.6677419652551825
 71
     5
 72
     1
  1
\A1;30
 11
6.123233995736766e-17
 21
1.000000000000000
 31
0.000000000000000
  7
STANDARD
  0
ENDBLK
  5
1A3
100
AcDbEntity
  8
DXF30
  6
CONTINUOUS
 62
3
100
AcDbBlockEnd
  0
BLOCK
  5
1A5
100
AcDbEntity
  8
DXF30
  6
CONTINUOUS
 62
3
100
AcDbBlockBegin
  2
*D7
 70
    65
 10
0.0
 20
0.0
 30
0.0
  0
LINE
  5
1A6
100
AcDbEntity
  8
DXF30
  6
BYBLOCK
 62
0
370
    -2
100
AcDbLine
 10
152.5500000119154
 20
110.2000000000005
 30
0.000000000000000
 11
166.5000000000047
 21
110.2000000000005
 31
0.000000000000000
  0
LINE
  5
1A7
100
AcDbEntity
  8
DXF30
  6
BYBLOCK
 62
0
370
    -2
100
AcDbLine
 10
165.0000000000047
 20
112.2000000000005
 30
0.000000000000000
 11
165.0000000000047
 21
248.2000000000005
 31
0.000000000000000
  0
INSERT
  5
1A8
100
AcDbEntity
  8
DXF30
  6
BYBLOCK
 62
0
100
AcDbBlockReference
  2
_OPEN
 10
165.0000000000047
 20
110.2000000000005
 30
0.000000000000000
 41
2.000000000000000
 42
2.000000000000000
 43
2.000000000000000
 50
270.0000000000000
  0
INSERT
  5
1A9
100
AcDbEntity
  8
DXF30
  6
BYBLOCK
 62
0
100
AcDbBlockReference
  2
_OPEN
 10
165.0000000000047
 20
250.2000000000005
 30
0.000000000000000
 41
2.000000000000000
 42
2.000000000000000
 43
2.000000000000000
 50
90.00000000000000
  0
LINE
  5
1AA
100
AcDbEntity
  8
DXF30
  6
BYBLOCK
 62
0
370
    -2
100
AcDbLine
 10
152.5500000119154
 20
250.2000000000005
 30
0.000000000000000
 11
166.5000000000047
 21
250.2000000000005
 31
0.000000000000000
  0
MTEXT
  5
1AB
100
AcDbEntity
  8
DXF30
  6
BYBLOCK
 62
0
100
AcDbMText
 10
162.9500000476884
 20
180.2000000000005
 30
0.000000000000000
 40
3.099999904632568
 41
0.000000000000000
 44
0.6677419652551825
 71
     5
 72
     1
  1
\A1;140
 11
6.123233995736766e-17
 21
1.000000000000000
 31
0.000000000000000
  7
STANDARD
  0
ENDBLK
  5
1AC
100
AcDbEntity
  8
DXF30
  6
CONTINUOUS
 62
3
100
AcDbBlockEnd
  0
BLOCK
  5
1AE
100
AcDbEntity
  8
DXF30
  6
CONTINUOUS
 62
3
100
AcDbBlockBegin
  2
*D8
 70
    65
 10
0.0
 20
0.0
 30
0.0
  0
LINE
  5
1AF
100
AcDbEntity
  8
DXF30
  6
BYBLOCK
 62
0
370
    -2
100
AcDbLine
 10
152.8000000119256
 20
80.20000000000049
 30
0.000000000000000
 11
176.5000000000047
 21
80.20000000000049
 31
0.000000000000000
  0
LINE
  5
1B0
100
AcDbEntity
  8
DXF30
  6
BYBLOCK
 62
0
370
    -2
100
AcDbLine
 10
175.0000000000047
 20
82.20000000000049
 30
0.000000000000000
 11
175.0000000000047
 21
278.2000000000005
 31
0.000000000000000
  0
INSERT
  5
1B1
100
AcDbEntity
  8
DXF30
  6
BYBLOCK
 62
0
100
AcDbBlockReference
  2
_OPEN
 10
175.0000000000047
 20
80.20000000000049
 30
0.000000000000000
 41
2.000000000000000
 42
2.000000000000000
 43
2.000000000000000
 50
270.0000000000000
  0
INSERT
  5
1B2
100
AcDbEntity
  8
DXF30
  6
BYBLOCK
 62
0
100
AcDbBlockReference
  2
_OPEN
 10
175.0000000000047
 20
280.2000000000005
 30
0.000000000000000
 41
2.000000000000000
 42
2.000000000000000
 43
2.000000000000000
 50
90.00000000000000
  0
LINE
  5
1B3
100
AcDbEntity
  8
DXF30
  6
BYBLOCK
 62
0
370
    -2
100
AcDbLine
 10
152.8000000119256
 20
280.2000000000005
 30
0.000000000000000
 11
176.5000000000047
 21
280.2000000000005
 31
0.000000000000000
  0
MTEXT
  5
1B4
100
AcDbEntity
  8
DXF30
  6
BYBLOCK
 62
0
100
AcDbMText
 10
172.9500000476880
 20
180.2000000000005
 30
0.000000000000000
 40
3.099999904632568
 41
0.000000000000000
 44
0.6677419652551825
 71
     5
 72
     1
  1
\A1;200
 11
6.123233995736766e-17
 21
1.000000000000000
 31
0.000000000000000
  7
STANDARD
  0
ENDBLK
  5
1B5
100
AcDbEntity
  8
DXF30
  6
CONTINUOUS
 62
3
100
AcDbBlockEnd
  0
BLOCK
  5
1B7
100
AcDbEntity
  8
DXF30
  6
CONTINUOUS
 62
3
100
AcDbBlockBegin
  2
*D9
 70
    65
 10
0.0
 20
0.0
 30
0.0
  0
LINE
  5
1B8
100
AcDbEntity
  8
DXF30
  6
BYBLOCK
 62
0
370
    -2
100
AcDbLine
 10
98.91416580497145
 20
116.5672612892579
 30
0.000000000000000
 11
90.00000000000453
 21
110.2000000000005
 31
0.000000000000000
  0
INSERT
  5
1B9
100
AcDbEntity
  8
DXF30
  6
BYBLOCK
 62
0
100
AcDbBlockReference
  2
_OPEN
 10
100.5416327473853
 20
117.7297376766955
 30
0.000000000000000
 41
2.000000000000000
 42
2.000000000000000
 43
2.000000000000000
 50
35.53767779195459
  0
LINE
  5
1BA
100
AcDbEntity
  8
DXF30
  6
BYBLOCK
 62
0
370
    -2
100
AcDbLine
 10
90.00000000000455
 20
110.2000000000005
 30
0.000000000000000
 11
71.77499955893018
 21
110.2000000000005
 31
0.000000000000000
  0
MTEXT
  5
1BB
100
AcDbEntity
  8
DXF30
  6
BYBLOCK
 62
0
100
AcDbMText
 10
80.88749977946736
 20
112.2499999523168
 30
0.000000000000000
 40
3.099999904632568
 41
0.000000000000000
 44
0.6677419652551825
 71
     5
 72
     1
  1
\A1;4-\U+22058.5
 11
1.000000000000000
 21
0.000000000000000
 31
0.000000000000000
  7
STANDARD
  0
ENDBLK
  5
1BC
100
AcDbEntity
  8
DXF30
  6
CONTINUOUS
 62
3
100
AcDbBlockEnd
  0
BLOCK
  5
1BE
100
AcDbEntity
  8
DXF30
  6
CONTINUOUS
 62
3
100
AcDbBlockBegin
  2
*D10
 70
    65
 10
0.0
 20
0.0
 30
0.0
  0
LINE
  5
1BF
100
AcDbEntity
  8
DXF30
  6
BYBLOCK
 62
0
370
    -2
100
AcDbLine
 10
155.0000000000046
 20
278.0000000119214
 30
0.000000000000000
 11
155.0000000000046
 21
303.7000000000006
 31
0.000000000000000
  0
LINE
  5
1C0
100
AcDbEntity
  8
DXF30
  6
BYBLOCK
 62
0
370
    -2
100
AcDbLine
 10
153.0000000000046
 20
302.2000000000006
 30
0.000000000000000
 11
97.00000000000456
 21
302.2000000000006
 31
0.000000000000000
  0
INSERT
  5
1C1
100
AcDbEntity
  8
DXF30
  6
BYBLOCK
 62
0
100
AcDbBlockReference
  2
_OPEN
 10
155.0000000000046
 20
302.2000000000006
 30
0.000000000000000
 41
2.000000000000000
 42
2.000000000000000
 43
2.000000000000000
 50
360.0000000000000
  0
INSERT
  5
1C2
100
AcDbEntity
  8
DXF30
  6
BYBLOCK
 62
0
100
AcDbBlockReference
  2
_OPEN
 10
95.00000000000456
 20
302.2000000000006
 30
0.000000000000000
 41
2.000000000000000
 42
2.000000000000000
 43
2.000000000000000
 50
180.0000000000000
  0
LINE
  5
1C3
100
AcDbEntity
  8
DXF30
  6
BYBLOCK
 62
0
370
    -2
100
AcDbLine
 10
95.00000000000456
 20
278.0000000119214
 30
0.000000000000000
 11
95.00000000000456
 21
303.7000000000006
 31
0.000000000000000
  0
MTEXT
  5
1C4
100
AcDbEntity
  8
DXF30
  6
BYBLOCK
 62
0
100
AcDbMText
 10
125.0000000000046
 20
304.2499999523169
 30
0.000000000000000
 40
3.099999904632568
 41
0.000000000000000
 44
0.6677419652551825
 71
     5
 72
     1
  1
\A1;60
 11
1.000000000000000
 21
0.000000000000000
 31
0.000000000000000
  7
STANDARD
  0
ENDBLK
  5
1C5
100
AcDbEntity
  8
DXF30
  6
CONTINUOUS
 62
3
100
AcDbBlockEnd
  0
ENDSEC
  0
SECTION
  2
ENTITIES
  0
LINE
  5
46
100
AcDbEntity
  8
A20
  6
CONTINUOUS
 62
3
100
AcDbLine
 10
155.0000000000047
 20
83.20000000000049
 30
0.000000000000000
 11
155.0000000000047
 21
277.2000000000005
 31
0.000000000000000
  0
LINE
  5
47
100
AcDbEntity
  8
A20
  6
CONTINUOUS
 62
3
100
AcDbLine
 10
95.00000000000455
 20
277.2000000000005
 30
0.000000000000000
 11
95.00000000000455
 21
83.20000000000049
 31
0.000000000000000
  0
LINE
  5
48
100
AcDbEntity
  8
A20
  6
CONTINUOUS
 62
3
100
AcDbLine
 10
118.0000000000046
 20
159.7000000000005
 30
0.000000000000000
 11
136.0000000000047
 21
159.7000000000005
 31
0.000000000000000
  0
LINE
  5
49
100
AcDbEntity
  8
A20
  6
CONTINUOUS
 62
3
100
AcDbLine
 10
118.0000000000046
 20
200.7000000000005
 30
0.000000000000000
 11
136.0000000000047
 21
200.7000000000005
 31
0.000000000000000
  0
LINE
  5
4A
100
AcDbEntity
  8
A20
  6
CONTINUOUS
 62
3
100
AcDbLine
 10
114.0000000000046
 20
133.2000000000005
 30
0.000000000000000
 11
132.4000000000046
 21
133.2000000000005
 31
0.000000000000000
  0
LINE
  5
4B
100
AcDbEntity
  8
A20
  6
CONTINUOUS
 62
3
100
AcDbLine
 10
117.6000000000045
 20
106.7000000000005
 30
0.000000000000000
 11
132.4000000000046
 21
106.7000000000005
 31
0.000000000000000
  0
LINE
  5
4C
100
AcDbEntity
  8
A20
  6
CONTINUOUS
 62
3
100
AcDbLine
 10
114.0000000000046
 20
227.2000000000005
 30
0.000000000000000
 11
132.4000000000046
 21
227.2000000000005
 31
0.000000000000000
  0
LINE
  5
4D
100
AcDbEntity
  8
A20
  6
CONTINUOUS
 62
3
100
AcDbLine
 10
117.6000000000046
 20
253.7000000000005
 30
0.000000000000000
 11
132.4000000000046
 21
253.7000000000005
 31
0.000000000000000
  0
LINE
  5
4E
100
AcDbEntity
  8
A20
  6
CONTINUOUS
 62
3
100
AcDbLine
 10
116.6000000000045
 20
81.20000000000050
 30
0.000000000000000
 11
116.6000000000045
 21
105.7000000000006
 31
0.000000000000000
  0
LINE
  5
4F
100
AcDbEntity
  8
A20
  6
CONTINUOUS
 62
3
100
AcDbLine
 10
133.4000000000046
 20
107.7000000000005
 30
0.000000000000000
 11
133.4000000000047
 21
132.2000000000005
 31
0.000000000000000
  0
LINE
  5
50
100
AcDbEntity
  8
A20
  6
CONTINUOUS
 62
3
100
AcDbLine
 10
133.4000000000046
 20
228.2000000000005
 30
0.000000000000000
 11
133.4000000000046
 21
252.7000000000005
 31
0.000000000000000
  0
LINE
  5
51
100
AcDbEntity
  8
A20
  6
CONTINUOUS
 62
3
100
AcDbLine
 10
116.6000000000046
 20
254.7000000000005
 30
0.000000000000000
 11
116.6000000000046
 21
279.2000000000005
 31
0.000000000000000
  0
LINE
  5
52
100
AcDbEntity
  8
A20
  6
CONTINUOUS
 62
3
100
AcDbLine
 10
132.0000000000045
 20
80.20000000000049
 30
0.000000000000000
 11
132.0000000000045
 21
159.7000000000005
 31
0.000000000000000
  0
LINE
  5
53
100
AcDbEntity
  8
A20
  6
CONTINUOUS
 62
3
100
AcDbLine
 10
132.0000000000045
 20
200.7000000000005
 30
0.000000000000000
 11
132.0000000000045
 21
280.2000000000005
 31
0.000000000000000
  0
LINE
  5
54
100
AcDbEntity
  8
A20
  6
CONTINUOUS
 62
3
100
AcDbLine
 10
118.0000000000045
 20
80.20000000000049
 30
0.000000000000000
 11
118.0000000000045
 21
159.7000000000005
 31
0.000000000000000
  0
LINE
  5
55
100
AcDbEntity
  8
A20
  6
CONTINUOUS
 62
3
100
AcDbLine
 10
118.0000000000045
 20
200.7000000000005
 30
0.000000000000000
 11
118.0000000000045
 21
280.2000000000005
 31
0.000000000000000
  0
LINE
  5
56
100
AcDbEntity
  8
A20
  6
DASHED
 62
3
100
AcDbLine
 10
129.0000000000045
 20
200.7000000000005
 30
0.000000000000000
 11
129.0000000000045
 21
280.2000000000005
 31
0.000000000000000
  0
LINE
  5
57
100
AcDbEntity
  8
A20
  6
DASHED
 62
3
100
AcDbLine
 10
121.0000000000045
 20
200.7000000000005
 30
0.000000000000000
 11
121.0000000000045
 21
280.2000000000005
 31
0.000000000000000
  0
LINE
  5
58
100
AcDbEntity
  8
A20
  6
DASHED
 62
3
100
AcDbLine
 10
129.0000000000045
 20
80.20000000000049
 30
0.000000000000000
 11
129.0000000000045
 21
159.7000000000005
 31
0.000000000000000
  0
LINE
  5
59
100
AcDbEntity
  8
A20
  6
DASHED
 62
3
100
AcDbLine
 10
121.0000000000045
 20
80.20000000000049
 30
0.000000000000000
 11
121.0000000000045
 21
159.7000000000005
 31
0.000000000000000
  0
CIRCLE
  5
5A
100
AcDbEntity
  8
A20
  6
DASHED
 62
3
100
AcDbCircle
 10
125.0000000000047
 20
32.00000000000044
 30
0.000000000000000
 40
4.000000000000000
  0
ARC
  5
5B
100
AcDbEntity
  8
A20
  6
CONTINUOUS
 62
3
100
AcDbCircle
 10
125.0000000000047
 20
32.00000000000044
 30
0.000000000000000
 40
7.000000000000000
100
AcDbArc
 50
325.1500954209491
 51
630.0000000000000
  0
CIRCLE
  5
5C
100
AcDbEntity
  8
A20
  6
CONTINUOUS
 62
3
100
AcDbCircle
 10
125.0000000000047
 20
32.00000000000044
 30
0.000000000000000
 40
5.000000000000000
  0
LINE
  5
5D
100
AcDbEntity
  8
A20
  6
CENTER
 62
3
100
AcDbLine
 10
133.5000000000049
 20
32.00000000000044
 30
0.000000000000000
 11
116.5000000000047
 21
32.00000000000044
 31
0.000000000000000
  0
LINE
  5
5E
100
AcDbEntity
  8
A20
  6
CENTER
 62
3
100
AcDbLine
 10
104.0000000000148
 20
245.9500000000005
 30
0.000000000000000
 11
104.0000000000148
 21
234.4500000000005
 31
0.000000000000000
  0
CIRCLE
  5
5F
100
AcDbEntity
  8
A20
  6
CONTINUOUS
 62
3
100
AcDbCircle
 10
145.9999999999944
 20
250.2000000000005
 30
0.000000000000000
 40
4.250000000000000
  0
LINE
  5
60
100
AcDbEntity
  8
A20
  6
CENTER
 62
3
100
AcDbLine
 10
151.7499999999944
 20
250.2000000000005
 30
0.000000000000000
 11
140.2499999999944
 21
250.2000000000005
 31
0.000000000000000
  0
LINE
  5
61
100
AcDbEntity
  8
A20
  6
CENTER
 62
3
100
AcDbLine
 10
145.9999999999944
 20
255.9500000000005
 30
0.000000000000000
 11
145.9999999999944
 21
244.4500000000005
 31
0.000000000000000
  0
CIRCLE
  5
62
100
AcDbEntity
  8
A20
  6
CONTINUOUS
 62
3
100
AcDbCircle
 10
104.0000000000148
 20
240.2000000000005
 30
0.000000000000000
 40
4.250000000000000
  0
LINE
  5
63
100
AcDbEntity
  8
A20
  6
CENTER
 62
3
100
AcDbLine
 10
98.25000000001478
 20
240.2000000000005
 30
0.000000000000000
 11
109.7500000000148
 21
240.2000000000005
 31
0.000000000000000
  0
CIRCLE
  5
64
100
AcDbEntity
  8
A20
  6
CONTINUOUS
 62
3
100
AcDbCircle
 10
104.0000000000148
 20
120.2000000000005
 30
0.000000000000000
 40
4.250000000000000
  0
LINE
  5
65
100
AcDbEntity
  8
A20
  6
CENTER
 62
3
100
AcDbLine
 10
145.9999999999944
 20
115.9500000000005
 30
0.000000000000000
 11
145.9999999999944
 21
104.4500000000005
 31
0.000000000000000
  0
CIRCLE
  5
66
100
AcDbEntity
  8
A20
  6
CONTINUOUS
 62
3
100
AcDbCircle
 10
145.9999999999944
 20
110.2000000000005
 30
0.000000000000000
 40
4.250000000000000
  0
LINE
  5
67
100
AcDbEntity
  8
A20
  6
CENTER
 62
3
100
AcDbLine
 10
151.7499999999944
 20
110.2000000000005
 30
0.000000000000000
 11
140.2499999999944
 21
110.2000000000005
 31
0.000000000000000
  0
LINE
  5
68
100
AcDbEntity
  8
A20
  6
CENTER
 62
3
100
AcDbLine
 10
98.25000000001478
 20
120.2000000000005
 30
0.000000000000000
 11
109.7500000000148
 21
120.2000000000005
 31
0.000000000000000
  0
LINE
  5
69
100
AcDbEntity
  8
A20
  6
CENTER
 62
3
100
AcDbLine
 10
104.0000000000148
 20
114.4500000000005
 30
0.000000000000000
 11
104.0000000000148
 21
125.9500000000005
 31
0.000000000000000
  0
LINE
  5
6A
100
AcDbEntity
  8
A20
  6
CENTER
 62
3
100
AcDbLine
 10
104.0000000000149
 20
23.50000000000010
 30
0.000000000000000
 11
104.0000000000149
 21
29.49999999999999
 31
0.000000000000000
  0
LINE
  5
6B
100
AcDbEntity
  8
A20
  6
CONTINUOUS
 62
3
100
AcDbLine
 10
95.00000000000006
 20
27.99999999999999
 30
0.000000000000000
 11
95.00000000000006
 21
24.99999999999999
 31
0.000000000000000
  0
LINE
  5
6C
100
AcDbEntity
  8
A20
  6
CONTINUOUS
 62
3
100
AcDbLine
 10
95.00000000000006
 20
27.99999999999999
 30
0.000000000000000
 11
119.2554373534670
 21
27.99999999999999
 31
0.000000000000000
  0
LINE
  5
6D
100
AcDbEntity
  8
A20
  6
CONTINUOUS
 62
3
100
AcDbLine
 10
125.0000000000048
 20
25.00000000000039
 30
0.000000000000000
 11
154.9999999999999
 21
25.00000000000000
 31
0.000000000000000
  0
LINE
  5
6E
100
AcDbEntity
  8
A20
  6
CENTER
 62
3
100
AcDbLine
 10
146.0000000001406
 20
23.50000000000010
 30
0.000000000000000
 11
146.0000000001406
 21
29.49999999999999
 31
0.000000000000000
  0
LINE
  5
6F
100
AcDbEntity
  8
A20
  6
CONTINUOUS
 62
3
100
AcDbLine
 10
155.0000000000001
 20
27.99999999999999
 30
0.000000000000000
 11
155.0000000000001
 21
24.99999999999999
 31
0.000000000000000
  0
LINE
  5
70
100
AcDbEntity
  8
A20
  6
CONTINUOUS
 62
3
100
AcDbLine
 10
155.0000000000001
 20
27.99999999999999
 30
0.000000000000000
 11
128.0000000000042
 21
27.99999999999999
 31
0.000000000000000
  0
LINE
  5
71
100
AcDbEntity
  8
A20
  6
DASHED
 62
3
100
AcDbLine
 10
128.2826072265976
 20
29.71428571428582
 30
0.000000000000000
 11
129.1032590332460
 21
29.14285714285704
 31
0.000000000000000
  0
LINE
  5
72
100
AcDbEntity
  8
A20
  6
CONTINUOUS
 62
3
100
AcDbLine
 10
129.1032590332460
 20
29.14285714285710
 30
0.000000000000000
 11
130.7445626465424
 21
27.99999999999988
 31
0.000000000000000
  0
LINE
  5
73
100
AcDbEntity
  8
A20
  6
CONTINUOUS
 62
3
100
AcDbLine
 10
116.6000000000063
 20
28.00000000000010
 30
0.000000000000000
 11
116.6000000000063
 21
25.00000000000044
 31
0.000000000000000
  0
LINE
  5
74
100
AcDbEntity
  8
A20
  6
DASHED
 62
3
100
AcDbLine
 10
113.0000000000047
 20
27.99999999999999
 30
0.000000000000000
 11
113.0000000000047
 21
25.00000000000055
 31
0.000000000000000
  0
LINE
  5
75
100
AcDbEntity
  8
A20
  6
DASHED
 62
3
100
AcDbLine
 10
137.0000000000049
 20
27.99999999999999
 30
0.000000000000000
 11
137.0000000000049
 21
25.00000000000033
 31
0.000000000000000
  0
LINE
  5
76
100
AcDbEntity
  8
A20
  6
CONTINUOUS
 62
3
100
AcDbLine
 10
121.0000000000048
 20
159.7000000000005
 30
0.000000000000000
 11
121.0000000000048
 21
163.8221853353989
 31
0.000000000000000
  0
LINE
  5
77
100
AcDbEntity
  8
A20
  6
CONTINUOUS
 62
3
100
AcDbLine
 10
121.0000000000048
 20
197.3967123023979
 30
0.000000000000000
 11
121.0000000000048
 21
200.7000000000005
 31
0.000000000000000
  0
LINE
  5
78
100
AcDbEntity
  8
A20
  6
CONTINUOUS
 62
3
100
AcDbLine
 10
129.0000000000048
 20
159.7000000000005
 30
0.000000000000000
 11
129.0000000000048
 21
163.0032876976034
 31
0.000000000000000
  0
LINE
  5
79
100
AcDbEntity
  8
A20
  6
CONTINUOUS
 62
3
100
AcDbLine
 10
129.0000000000048
 20
196.5778146646022
 30
0.000000000000000
 11
129.0000000000048
 21
200.7000000000005
 31
0.000000000000000
  0
ARC
  5
7A
100
AcDbEntity
  8
A20
  6
CONTINUOUS
 62
3
100
AcDbCircle
 10
152.0000000000047
 20
277.2000000000005
 30
0.000000000000000
 40
3.000000000000000
100
AcDbArc
 50
0.000000000000000
 51
90.00000000000000
  0
LINE
  5
7B
100
AcDbEntity
  8
A20
  6
CONTINUOUS
 62
3
100
AcDbLine
 10
152.0000000000047
 20
80.20000000000049
 30
0.000000000000000
 11
118.0000000000045
 21
80.20000000000049
 31
0.000000000000000
  0
LINE
  5
7C
100
AcDbEntity
  8
A20
  6
CONTINUOUS
 62
3
100
AcDbLine
 10
115.6000000000045
 20
80.20000000000049
 30
0.000000000000000
 11
98.00000000000466
 21
80.20000000000049
 31
0.000000000000000
  0
LINE
  5
7D
100
AcDbEntity
  8
A20
  6
CONTINUOUS
 62
3
100
AcDbLine
 10
152.0000000000047
 20
280.2000000000005
 30
0.000000000000000
 11
118.0000000000045
 21
280.2000000000005
 31
0.000000000000000
  0
LINE
  5
7E
100
AcDbEntity
  8
A20
  6
CONTINUOUS
 62
3
100
AcDbLine
 10
115.6000000000046
 20
280.2000000000005
 30
0.000000000000000
 11
98.00000000000468
 21
280.2000000000005
 31
0.000000000000000
  0
ARC
  5
7F
100
AcDbEntity
  8
A20
  6
CONTINUOUS
 62
3
100
AcDbCircle
 10
98.00000000000466
 20
277.2000000000005
 30
0.000000000000000
 40
3.000000000000000
100
AcDbArc
 50
90.00000000000000
 51
180.0000000000000
  0
ARC
  5
80
100
AcDbEntity
  8
A20
  6
CONTINUOUS
 62
3
100
AcDbCircle
 10
98.00000000000469
 20
83.20000000000049
 30
0.000000000000000
 40
3.000000000000000
100
AcDbArc
 50
180.0000000000000
 51
270.0000000000000
  0
ARC
  5
81
100
AcDbEntity
  8
A20
  6
CONTINUOUS
 62
3
100
AcDbCircle
 10
152.0000000000047
 20
83.20000000000049
 30
0.000000000000000
 40
3.000000000000000
100
AcDbArc
 50
270.0000000000000
 51
360.0000000000000
  0
LINE
  5
82
100
AcDbEntity
  8
A20
  6
CONTINUOUS
 62
3
100
AcDbLine
 10
95.00000000000001
 20
24.99999999999999
 30
0.000000000000000
 11
125.0000000000048
 21
25.00000000000062
 31
0.000000000000000
  0
LINE
  5
83
100
AcDbEntity
  8
A20
  6
CONTINUOUS
 62
3
100
AcDbLine
 10
137.0000000000047
 20
160.7000000000005
 30
0.000000000000000
 11
137.0000000000047
 21
197.2097207972067
 31
0.000000000000000
  0
LINE
  5
84
100
AcDbEntity
  8
A20
  6
CONTINUOUS
 62
3
100
AcDbLine
 10
113.0000000000046
 20
163.1902792027943
 30
0.000000000000000
 11
113.0000000000046
 21
226.2000000000005
 31
0.000000000000000
  0
LINE
  5
85
100
AcDbEntity
  8
A20
  6
CONTINUOUS
 62
3
100
AcDbLine
 10
113.0000000000046
 20
134.2000000000005
 30
0.000000000000000
 11
113.0000000000046
 21
160.5718539493131
 31
0.000000000000000
  0
ARC
  5
86
100
AcDbEntity
  8
A20
  6
CONTINUOUS
 62
3
100
AcDbCircle
 10
136.0000000000047
 20
160.7000000000005
 30
0.000000000000000
 40
1.000000000000000
100
AcDbArc
 50
270.0000000000000
 51
360.0000000000000
  0
ARC
  5
87
100
AcDbEntity
  8
A20
  6
CONTINUOUS
 62
3
100
AcDbCircle
 10
136.0000000000047
 20
199.7000000000005
 30
0.000000000000000
 40
1.000000000000000
100
AcDbArc
 50
7.306528949873129
 51
90.00000000000000
  0
LINE
  5
88
100
AcDbEntity
  8
A20
  6
CONTINUOUS
 62
3
100
AcDbLine
 10
127.5000000000048
 20
282.2000000000006
 30
0.000000000000000
 11
122.5000000000048
 21
282.2000000000006
 31
0.000000000000000
  0
ARC
  5
89
100
AcDbEntity
  8
A20
  6
CONTINUOUS
 62
3
100
AcDbCircle
 10
122.5000000000047
 20
280.2000000000006
 30
0.000000000000000
 40
2.000000000000000
100
AcDbArc
 50
90.00000000000000
 51
180.0000000000000
  0
ARC
  5
8A
100
AcDbEntity
  8
A20
  6
CONTINUOUS
 62
3
100
AcDbCircle
 10
127.5000000000048
 20
280.2000000000006
 30
0.000000000000000
 40
2.000000000000000
100
AcDbArc
 50
0.000000000000000
 51
90.00000000000000
  0
LINE
  5
8B
100
AcDbEntity
  8
A20
  6
CONTINUOUS
 62
3
100
AcDbLine
 10
127.5000000000048
 20
78.20000000000050
 30
0.000000000000000
 11
122.5000000000048
 21
78.20000000000050
 31
0.000000000000000
  0
ARC
  5
8C
100
AcDbEntity
  8
A20
  6
CONTINUOUS
 62
3
100
AcDbCircle
 10
122.5000000000047
 20
80.20000000000049
 30
0.000000000000000
 40
2.000000000000000
100
AcDbArc
 50
180.0000000000000
 51
270.0000000000000
  0
ARC
  5
8D
100
AcDbEntity
  8
A20
  6
CONTINUOUS
 62
3
100
AcDbCircle
 10
127.5000000000048
 20
80.20000000000049
 30
0.000000000000000
 40
2.000000000000000
100
AcDbArc
 50
270.0000000000000
 51
360.0000000000000
  0
ARC
  5
8E
100
AcDbEntity
  8
A20
  6
CONTINUOUS
 62
3
100
AcDbCircle
 10
118.6500000000055
 20
196.3304705177189
 30
0.000000000000000
 40
1.300000000000000
100
AcDbArc
 50
84.15543412261124
 51
264.1554341226112
  0
ARC
  5
8F
100
AcDbEntity
  8
A20
  6
CONTINUOUS
 62
3
100
AcDbCircle
 10
131.3500000000055
 20
195.0304705177184
 30
0.000000000000000
 40
1.300000000000000
100
AcDbArc
 50
264.1554341226112
 51
444.1554341226112
  0
LINE
  5
90
100
AcDbEntity
  8
A20
  6
CONTINUOUS
 62
3
100
AcDbLine
 10
131.4823791377221
 20
196.3237128631034
 30
0.000000000000000
 11
118.7823791377222
 21
197.6237128631039
 31
0.000000000000000
  0
LINE
  5
91
100
AcDbEntity
  8
A20
  6
CONTINUOUS
 62
3
100
AcDbLine
 10
131.2176208622889
 20
193.7372281723331
 30
0.000000000000000
 11
118.5176208622889
 21
195.0372281723336
 31
0.000000000000000
  0
LINE
  5
92
100
AcDbEntity
  8
A20
  6
CONTINUOUS
 62
3
100
AcDbLine
 10
131.4823791377220
 20
193.5090818598820
 30
0.000000000000000
 11
118.7823791377220
 21
194.8090818598825
 31
0.000000000000000
  0
ARC
  5
93
100
AcDbEntity
  8
A20
  6
CONTINUOUS
 62
3
100
AcDbCircle
 10
131.3500000000054
 20
192.2158395144970
 30
0.000000000000000
 40
1.300000000000000
100
AcDbArc
 50
264.1554341226112
 51
444.1554341226112
  0
ARC
  5
94
100
AcDbEntity
  8
A20
  6
CONTINUOUS
 62
3
100
AcDbCircle
 10
118.6500000000054
 20
193.5158395144975
 30
0.000000000000000
 40
1.300000000000000
100
AcDbArc
 50
84.15543412261124
 51
264.1554341226112
  0
LINE
  5
95
100
AcDbEntity
  8
A20
  6
CONTINUOUS
 62
3
100
AcDbLine
 10
131.2176208622887
 20
190.9225971691117
 30
0.000000000000000
 11
118.5176208622888
 21
192.2225971691122
 31
0.000000000000000
  0
LINE
  5
96
100
AcDbEntity
  8
A20
  6
CONTINUOUS
 62
3
100
AcDbLine
 10
131.4823791377219
 20
190.6944508566606
 30
0.000000000000000
 11
118.7823791377219
 21
191.9944508566611
 31
0.000000000000000
  0
ARC
  5
97
100
AcDbEntity
  8
A20
  6
CONTINUOUS
 62
3
100
AcDbCircle
 10
131.3500000000053
 20
189.4012085112756
 30
0.000000000000000
 40
1.300000000000000
100
AcDbArc
 50
264.1554341226112
 51
444.1554341226112
  0
ARC
  5
98
100
AcDbEntity
  8
A20
  6
CONTINUOUS
 62
3
100
AcDbCircle
 10
118.6500000000053
 20
190.7012085112761
 30
0.000000000000000
 40
1.300000000000000
100
AcDbArc
 50
84.15543412261124
 51
264.1554341226112
  0
LINE
  5
99
100
AcDbEntity
  8
A20
  6
CONTINUOUS
 62
3
100
AcDbLine
 10
131.2176208622886
 20
188.1079661658903
 30
0.000000000000000
 11
118.5176208622887
 21
189.4079661658908
 31
0.000000000000000
  0
LINE
  5
9A
100
AcDbEntity
  8
A20
  6
CONTINUOUS
 62
3
100
AcDbLine
 10
131.4823791377218
 20
187.8798198534392
 30
0.000000000000000
 11
118.7823791377218
 21
189.1798198534397
 31
0.000000000000000
  0
ARC
  5
9B
100
AcDbEntity
  8
A20
  6
CONTINUOUS
 62
3
100
AcDbCircle
 10
131.3500000000051
 20
186.5865775080542
 30
0.000000000000000
 40
1.300000000000000
100
AcDbArc
 50
264.1554341226112
 51
444.1554341226112
  0
ARC
  5
9C
100
AcDbEntity
  8
A20
  6
CONTINUOUS
 62
3
100
AcDbCircle
 10
118.6500000000052
 20
187.8865775080546
 30
0.000000000000000
 40
1.300000000000000
100
AcDbArc
 50
84.15543412261124
 51
264.1554341226112
  0
LINE
  5
9D
100
AcDbEntity
  8
A20
  6
CONTINUOUS
 62
3
100
AcDbLine
 10
131.2176208622885
 20
185.2933351626689
 30
0.000000000000000
 11
118.5176208622886
 21
186.5933351626694
 31
0.000000000000000
  0
LINE
  5
9E
100
AcDbEntity
  8
A20
  6
CONTINUOUS
 62
3
100
AcDbLine
 10
131.4823791377217
 20
185.0651888502177
 30
0.000000000000000
 11
118.7823791377217
 21
186.3651888502182
 31
0.000000000000000
  0
ARC
  5
9F
100
AcDbEntity
  8
A20
  6
CONTINUOUS
 62
3
100
AcDbCircle
 10
131.3500000000050
 20
183.7719465048328
 30
0.000000000000000
 40
1.300000000000000
100
AcDbArc
 50
264.1554341226112
 51
444.1554341226112
  0
ARC
  5
A0
100
AcDbEntity
  8
A20
  6
CONTINUOUS
 62
3
100
AcDbCircle
 10
118.6500000000051
 20
185.0719465048332
 30
0.000000000000000
 40
1.300000000000000
100
AcDbArc
 50
84.15543412261124
 51
264.1554341226112
  0
LINE
  5
A1
100
AcDbEntity
  8
A20
  6
CONTINUOUS
 62
3
100
AcDbLine
 10
131.2176208622884
 20
182.4787041594473
 30
0.000000000000000
 11
118.5176208622885
 21
183.7787041594479
 31
0.000000000000000
  0
LINE
  5
A2
100
AcDbEntity
  8
A20
  6
CONTINUOUS
 62
3
100
AcDbLine
 10
131.4823791377215
 20
182.2505578469963
 30
0.000000000000000
 11
118.7823791377215
 21
183.5505578469968
 31
0.000000000000000
  0
ARC
  5
A3
100
AcDbEntity
  8
A20
  6
CONTINUOUS
 62
3
100
AcDbCircle
 10
131.3500000000049
 20
180.9573155016112
 30
0.000000000000000
 40
1.300000000000000
100
AcDbArc
 50
264.1554341226112
 51
444.1554341226112
  0
ARC
  5
A4
100
AcDbEntity
  8
A20
  6
CONTINUOUS
 62
3
100
AcDbCircle
 10
118.6500000000050
 20
182.2573155016117
 30
0.000000000000000
 40
1.300000000000000
100
AcDbArc
 50
84.15543412261124
 51
264.1554341226112
  0
LINE
  5
A5
100
AcDbEntity
  8
A20
  6
CONTINUOUS
 62
3
100
AcDbLine
 10
131.2176208622882
 20
179.6640731562260
 30
0.000000000000000
 11
118.5176208622883
 21
180.9640731562265
 31
0.000000000000000
  0
LINE
  5
A6
100
AcDbEntity
  8
A20
  6
CONTINUOUS
 62
3
100
AcDbLine
 10
131.4823791377214
 20
179.4359268437747
 30
0.000000000000000
 11
118.7823791377214
 21
180.7359268437752
 31
0.000000000000000
  0
ARC
  5
A7
100
AcDbEntity
  8
A20
  6
CONTINUOUS
 62
3
100
AcDbCircle
 10
131.3500000000048
 20
178.1426844983898
 30
0.000000000000000
 40
1.300000000000000
100
AcDbArc
 50
264.1554341226112
 51
444.1554341226112
  0
ARC
  5
A8
100
AcDbEntity
  8
A20
  6
CONTINUOUS
 62
3
100
AcDbCircle
 10
118.6500000000048
 20
179.4426844983903
 30
0.000000000000000
 40
1.300000000000000
100
AcDbArc
 50
84.15543412261124
 51
264.1554341226112
  0
LINE
  5
A9
100
AcDbEntity
  8
A20
  6
CONTINUOUS
 62
3
100
AcDbLine
 10
131.2176208622881
 20
176.8494421530044
 30
0.000000000000000
 11
118.5176208622882
 21
178.1494421530050
 31
0.000000000000000
  0
LINE
  5
AA
100
AcDbEntity
  8
A20
  6
CONTINUOUS
 62
3
100
AcDbLine
 10
131.4823791377213
 20
176.6212958405533
 30
0.000000000000000
 11
118.7823791377213
 21
177.9212958405539
 31
0.000000000000000
  0
ARC
  5
AB
100
AcDbEntity
  8
A20
  6
CONTINUOUS
 62
3
100
AcDbCircle
 10
131.3500000000046
 20
175.3280534951684
 30
0.000000000000000
 40
1.300000000000000
100
AcDbArc
 50
264.1554341226112
 51
444.1554341226112
  0
ARC
  5
AC
100
AcDbEntity
  8
A20
  6
CONTINUOUS
 62
3
100
AcDbCircle
 10
118.6500000000047
 20
176.6280534951688
 30
0.000000000000000
 40
1.300000000000000
100
AcDbArc
 50
84.15543412261124
 51
264.1554341226112
  0
LINE
  5
AD
100
AcDbEntity
  8
A20
  6
CONTINUOUS
 62
3
100
AcDbLine
 10
131.2176208622880
 20
174.0348111497831
 30
0.000000000000000
 11
118.5176208622881
 21
175.3348111497836
 31
0.000000000000000
  0
LINE
  5
AE
100
AcDbEntity
  8
A20
  6
CONTINUOUS
 62
3
100
AcDbLine
 10
131.4823791377211
 20
173.8066648373318
 30
0.000000000000000
 11
118.7823791377212
 21
175.1066648373323
 31
0.000000000000000
  0
ARC
  5
AF
100
AcDbEntity
  8
A20
  6
CONTINUOUS
 62
3
100
AcDbCircle
 10
131.3500000000045
 20
172.5134224919469
 30
0.000000000000000
 40
1.300000000000000
100
AcDbArc
 50
264.1554341226112
 51
444.1554341226112
  0
ARC
  5
B0
100
AcDbEntity
  8
A20
  6
CONTINUOUS
 62
3
100
AcDbCircle
 10
118.6500000000046
 20
173.8134224919474
 30
0.000000000000000
 40
1.300000000000000
100
AcDbArc
 50
84.15543412261124
 51
264.1554341226112
  0
LINE
  5
B1
100
AcDbEntity
  8
A20
  6
CONTINUOUS
 62
3
100
AcDbLine
 10
131.2176208622878
 20
171.2201801465615
 30
0.000000000000000
 11
118.5176208622879
 21
172.5201801465620
 31
0.000000000000000
  0
LINE
  5
B2
100
AcDbEntity
  8
A20
  6
CONTINUOUS
 62
3
100
AcDbLine
 10
131.4823791377211
 20
170.9920338341103
 30
0.000000000000000
 11
118.7823791377211
 21
172.2920338341108
 31
0.000000000000000
  0
ARC
  5
B3
100
AcDbEntity
  8
A20
  6
CONTINUOUS
 62
3
100
AcDbCircle
 10
131.3500000000045
 20
169.6987914887254
 30
0.000000000000000
 40
1.300000000000000
100
AcDbArc
 50
264.1554341226112
 51
444.1554341226112
  0
ARC
  5
B4
100
AcDbEntity
  8
A20
  6
CONTINUOUS
 62
3
100
AcDbCircle
 10
118.6500000000045
 20
170.9987914887258
 30
0.000000000000000
 40
1.300000000000000
100
AcDbArc
 50
84.15543412261124
 51
264.1554341226112
  0
LINE
  5
B5
100
AcDbEntity
  8
A20
  6
CONTINUOUS
 62
3
100
AcDbLine
 10
131.2176208622878
 20
168.4055491433400
 30
0.000000000000000
 11
118.5176208622879
 21
169.7055491433405
 31
0.000000000000000
  0
LINE
  5
B6
100
AcDbEntity
  8
A20
  6
CONTINUOUS
 62
3
100
AcDbLine
 10
131.4823791377210
 20
168.1774028308888
 30
0.000000000000000
 11
118.7823791377210
 21
169.4774028308893
 31
0.000000000000000
  0
ARC
  5
B7
100
AcDbEntity
  8
A20
  6
CONTINUOUS
 62
3
100
AcDbCircle
 10
131.3500000000043
 20
166.8841604855038
 30
0.000000000000000
 40
1.300000000000000
100
AcDbArc
 50
264.1554341226112
 51
444.1554341226112
  0
ARC
  5
B8
100
AcDbEntity
  8
A20
  6
CONTINUOUS
 62
3
100
AcDbCircle
 10
118.6500000000044
 20
168.1841604855044
 30
0.000000000000000
 40
1.300000000000000
100
AcDbArc
 50
84.15543412261124
 51
264.1554341226112
  0
LINE
  5
B9
100
AcDbEntity
  8
A20
  6
CONTINUOUS
 62
3
100
AcDbLine
 10
131.2176208622877
 20
165.5909181401185
 30
0.000000000000000
 11
118.5176208622878
 21
166.8909181401190
 31
0.000000000000000
  0
LINE
  5
BA
100
AcDbEntity
  8
A20
  6
CONTINUOUS
 62
3
100
AcDbLine
 10
131.4823791377208
 20
165.3627718276673
 30
0.000000000000000
 11
118.7823791377209
 21
166.6627718276678
 31
0.000000000000000
  0
ARC
  5
BB
100
AcDbEntity
  8
A20
  6
CONTINUOUS
 62
3
100
AcDbCircle
 10
131.3500000000041
 20
164.0695294822824
 30
0.000000000000000
 40
1.300000000000000
100
AcDbArc
 50
264.1554341226112
 51
444.1554341226112
  0
ARC
  5
BC
100
AcDbEntity
  8
A20
  6
CONTINUOUS
 62
3
100
AcDbCircle
 10
118.6500000000042
 20
165.3695294822830
 30
0.000000000000000
 40
1.300000000000000
100
AcDbArc
 50
84.15543412261124
 51
264.1554341226112
  0
LINE
  5
BD
100
AcDbEntity
  8
A20
  6
CONTINUOUS
 62
3
100
AcDbLine
 10
131.2176208622875
 20
162.7762871368970
 30
0.000000000000000
 11
118.5176208622876
 21
164.0762871368975
 31
0.000000000000000
  0
LINE
  5
BE
100
AcDbEntity
  8
A20
  6
CONTINUOUS
 62
3
100
AcDbLine
 10
131.5039499813660
 20
193.7396183173332
 30
0.000000000000000
 11
130.4537749840100
 21
193.6143720488447
 31
0.000000000000000
  0
LINE
  5
BF
100
AcDbEntity
  8
A20
  6
CONTINUOUS
 62
3
100
AcDbLine
 10
118.4960500186449
 20
194.8066917148828
 30
0.000000000000000
 11
119.5462250160013
 21
194.9319379833712
 31
0.000000000000000
  0
LINE
  5
C0
100
AcDbEntity
  8
A20
  6
CONTINUOUS
 62
3
100
AcDbLine
 10
118.4960500186448
 20
191.9920607116614
 30
0.000000000000000
 11
119.5462250160013
 21
192.1173069801499
 31
0.000000000000000
  0
LINE
  5
C1
100
AcDbEntity
  8
A20
  6
CONTINUOUS
 62
3
100
AcDbLine
 10
131.5039499813658
 20
190.9249873141118
 30
0.000000000000000
 11
130.4537749840099
 21
190.7997410456233
 31
0.000000000000000
  0
LINE
  5
C2
100
AcDbEntity
  8
A20
  6
CONTINUOUS
 62
3
100
AcDbLine
 10
118.4960500186447
 20
189.1774297084400
 30
0.000000000000000
 11
119.5462250160011
 21
189.3026759769284
 31
0.000000000000000
  0
LINE
  5
C3
100
AcDbEntity
  8
A20
  6
CONTINUOUS
 62
3
100
AcDbLine
 10
131.5039499813657
 20
188.1103563108904
 30
0.000000000000000
 11
130.4537749840098
 21
187.9851100424019
 31
0.000000000000000
  0
LINE
  5
C4
100
AcDbEntity
  8
A20
  6
CONTINUOUS
 62
3
100
AcDbLine
 10
118.4960500186446
 20
186.3627987052185
 30
0.000000000000000
 11
119.5462250160010
 21
186.4880449737070
 31
0.000000000000000
  0
LINE
  5
C5
100
AcDbEntity
  8
A20
  6
CONTINUOUS
 62
3
100
AcDbLine
 10
131.5039499813656
 20
185.2957253076690
 30
0.000000000000000
 11
130.4537749840096
 21
185.1704790391805
 31
0.000000000000000
  0
LINE
  5
C6
100
AcDbEntity
  8
A20
  6
CONTINUOUS
 62
3
100
AcDbLine
 10
118.4960500186445
 20
183.5481677019970
 30
0.000000000000000
 11
119.5462250160009
 21
183.6734139704855
 31
0.000000000000000
  0
LINE
  5
C7
100
AcDbEntity
  8
A20
  6
CONTINUOUS
 62
3
100
AcDbLine
 10
131.5039499813655
 20
182.4810943044474
 30
0.000000000000000
 11
130.4537749840095
 21
182.3558480359590
 31
0.000000000000000
  0
LINE
  5
C8
100
AcDbEntity
  8
A20
  6
CONTINUOUS
 62
3
100
AcDbLine
 10
118.4960500186444
 20
180.7335366987756
 30
0.000000000000000
 11
119.5462250160008
 21
180.8587829672641
 31
0.000000000000000
  0
LINE
  5
C9
100
AcDbEntity
  8
A20
  6
CONTINUOUS
 62
3
100
AcDbLine
 10
131.5039499813654
 20
179.6664633012259
 30
0.000000000000000
 11
130.4537749840094
 21
179.5412170327375
 31
0.000000000000000
  0
LINE
  5
CA
100
AcDbEntity
  8
A20
  6
CONTINUOUS
 62
3
100
AcDbLine
 10
118.4960500186442
 20
177.9189056955541
 30
0.000000000000000
 11
119.5462250160007
 21
178.0441519640426
 31
0.000000000000000
  0
LINE
  5
CB
100
AcDbEntity
  8
A20
  6
CONTINUOUS
 62
3
100
AcDbLine
 10
131.5039499813653
 20
176.8518322980046
 30
0.000000000000000
 11
130.4537749840093
 21
176.7265860295161
 31
0.000000000000000
  0
LINE
  5
CC
100
AcDbEntity
  8
A20
  6
CONTINUOUS
 62
3
100
AcDbLine
 10
118.4960500186442
 20
175.1042746923327
 30
0.000000000000000
 11
119.5462250160006
 21
175.2295209608211
 31
0.000000000000000
  0
LINE
  5
CD
100
AcDbEntity
  8
A20
  6
CONTINUOUS
 62
3
100
AcDbLine
 10
131.5039499813651
 20
174.0372012947831
 30
0.000000000000000
 11
130.4537749840092
 21
173.9119550262947
 31
0.000000000000000
  0
LINE
  5
CE
100
AcDbEntity
  8
A20
  6
CONTINUOUS
 62
3
100
AcDbLine
 10
118.4960500186440
 20
172.2896436891112
 30
0.000000000000000
 11
119.5462250160005
 21
172.4148899575997
 31
0.000000000000000
  0
LINE
  5
CF
100
AcDbEntity
  8
A20
  6
CONTINUOUS
 62
3
100
AcDbLine
 10
131.5039499813650
 20
171.2225702915616
 30
0.000000000000000
 11
130.4537749840090
 21
171.0973240230732
 31
0.000000000000000
  0
LINE
  5
D0
100
AcDbEntity
  8
A20
  6
CONTINUOUS
 62
3
100
AcDbLine
 10
118.4960500186440
 20
169.4750126858896
 30
0.000000000000000
 11
119.5462250160004
 21
169.6002589543781
 31
0.000000000000000
  0
LINE
  5
D1
100
AcDbEntity
  8
A20
  6
CONTINUOUS
 62
3
100
AcDbLine
 10
131.5039499813649
 20
168.4079392883401
 30
0.000000000000000
 11
130.4537749840089
 21
168.2826930198517
 31
0.000000000000000
  0
LINE
  5
D2
100
AcDbEntity
  8
A20
  6
CONTINUOUS
 62
3
100
AcDbLine
 10
118.4960500186438
 20
166.6603816826681
 30
0.000000000000000
 11
119.5462250160003
 21
166.7856279511566
 31
0.000000000000000
  0
LINE
  5
D3
100
AcDbEntity
  8
A20
  6
CONTINUOUS
 62
3
100
AcDbLine
 10
131.5039499813648
 20
165.5933082851186
 30
0.000000000000000
 11
130.4537749840088
 21
165.4680620166302
 31
0.000000000000000
  0
LINE
  5
D4
100
AcDbEntity
  8
A20
  6
CONTINUOUS
 62
3
100
AcDbLine
 10
119.5462250159993
 20
163.9709969479349
 30
0.000000000000000
 11
106.4942649324347
 21
162.4143903813703
 31
0.000000000000000
  0
ARC
  5
D5
100
AcDbEntity
  8
A20
  6
CONTINUOUS
 62
3
100
AcDbCircle
 10
106.3758418698495
 20
163.4073536124358
 30
0.000000000000000
 40
3.600000000000000
100
AcDbArc
 50
186.8011017732437
 51
276.8011017732442
  0
LINE
  5
D6
100
AcDbEntity
  8
A20
  6
CONTINUOUS
 62
3
100
AcDbLine
 10
102.8011742380139
 20
162.9810305871295
 30
0.000000000000000
 11
102.1616897000545
 21
168.3430320348832
 31
0.000000000000000
  0
LINE
  5
D7
100
AcDbEntity
  8
A20
  6
CONTINUOUS
 62
3
100
AcDbLine
 10
105.3828786387841
 20
163.2889305498509
 30
0.000000000000000
 11
104.7433941008248
 21
168.6509319976044
 31
0.000000000000000
  0
ARC
  5
D8
100
AcDbEntity
  8
A20
  6
CONTINUOUS
 62
3
100
AcDbCircle
 10
106.3758418698496
 20
163.4073536124358
 30
0.000000000000000
 40
1.000000000000000
100
AcDbArc
 50
186.8011017732449
 51
276.8011017732437
  0
LINE
  5
D9
100
AcDbEntity
  8
A20
  6
CONTINUOUS
 62
3
100
AcDbLine
 10
104.7433941008247
 20
168.6509319976043
 30
0.000000000000000
 11
102.1616897000545
 21
168.3430320348832
 31
0.000000000000000
  0
LINE
  5
DA
100
AcDbEntity
  8
A20
  6
CONTINUOUS
 62
3
100
AcDbLine
 10
113.1120522364334
 20
162.6799577577105
 30
0.000000000000000
 11
113.2967922140661
 21
161.1309351172483
 31
0.000000000000000
  0
LINE
  5
DB
100
AcDbEntity
  8
A20
  6
CENTER
 62
3
100
AcDbLine
 10
134.1500000000048
 20
33.05000000000042
 30
0.000000000000000
 11
115.8500000000047
 21
33.05000000000042
 31
0.000000000000000
  0
LINE
  5
DC
100
AcDbEntity
  8
A20
  6
CONTINUOUS
 62
3
100
AcDbLine
 10
121.0000000000048
 20
197.9199495111969
 30
0.000000000000000
 11
118.4960500186451
 21
197.6213227181039
 31
0.000000000000000
  0
LINE
  5
DD
100
AcDbEntity
  8
A20
  6
CONTINUOUS
 62
3
100
AcDbLine
 10
131.5039499813647
 20
162.7786772818975
 30
0.000000000000000
 11
129.0000000000048
 21
162.4800504888044
 31
0.000000000000000
  0
LINE
  5
DE
100
AcDbEntity
  8
A20
  6
CONTINUOUS
 62
3
100
AcDbLine
 10
121.0000000000049
 20
161.5259522190587
 30
0.000000000000000
 11
106.8021648951558
 21
159.8326859806000
 31
0.000000000000000
  0
LINE
  5
DF
100
AcDbEntity
  8
A20
  6
CONTINUOUS
 62
3
100
AcDbLine
 10
136.8879477635762
 20
197.7200422422904
 30
0.000000000000000
 11
136.7032077859436
 21
199.2690648827526
 31
0.000000000000000
  0
ARC
  5
E0
100
AcDbEntity
  8
A20
  6
CONTINUOUS
 62
3
100
AcDbCircle
 10
143.6241581301593
 20
196.9926463875651
 30
0.000000000000000
 40
3.600000000000000
100
AcDbArc
 50
6.801101773243770
 51
96.80110177324418
  0
LINE
  5
E1
100
AcDbEntity
  8
A20
  6
CONTINUOUS
 62
3
100
AcDbLine
 10
147.1988257619949
 20
197.4189694128713
 30
0.000000000000000
 11
147.8383102999543
 21
192.0569679651176
 31
0.000000000000000
  0
LINE
  5
E2
100
AcDbEntity
  8
A20
  6
CONTINUOUS
 62
3
100
AcDbLine
 10
144.6171213612248
 20
197.1110694501501
 30
0.000000000000000
 11
145.2566058991842
 21
191.7490680023966
 31
0.000000000000000
  0
ARC
  5
E3
100
AcDbEntity
  8
A20
  6
CONTINUOUS
 62
3
100
AcDbCircle
 10
143.6241581301592
 20
196.9926463875651
 30
0.000000000000000
 40
1.000000000000000
100
AcDbArc
 50
6.801101773244889
 51
96.80110177324366
  0
LINE
  5
E4
100
AcDbEntity
  8
A20
  6
CONTINUOUS
 62
3
100
AcDbLine
 10
145.2566058991843
 20
191.7490680023965
 30
0.000000000000000
 11
147.8383102999545
 21
192.0569679651176
 31
0.000000000000000
  0
LINE
  5
E5
100
AcDbEntity
  8
A20
  6
CONTINUOUS
 62
3
100
AcDbLine
 10
143.5057350675742
 20
197.9856096186305
 30
0.000000000000000
 11
130.4537749840103
 21
196.4290030520660
 31
0.000000000000000
  0
LINE
  5
E6
100
AcDbEntity
  8
A20
  6
CONTINUOUS
 62
3
100
AcDbLine
 10
143.1978351048530
 20
200.5673140194007
 30
0.000000000000000
 11
129.0000000000048
 21
198.8740477809421
 31
0.000000000000000
  0
LINE
  5
E7
100
AcDbEntity
  8
A20
  6
CENTER
 62
3
100
AcDbLine
 10
125.0000000000048
 20
283.7000000000006
 30
0.000000000000000
 11
125.0000000000048
 21
76.70000000000050
 31
0.000000000000000
  0
ARC
  5
E8
100
AcDbEntity
  8
A20
  6
CONTINUOUS
 62
3
100
AcDbCircle
 10
125.0000000000046
 20
33.05000000000051
 30
0.000000000000000
 40
7.650000000000000
100
AcDbArc
 50
318.6901570766166
 51
560.3344883861106
  0
LINE
  5
E9
100
AcDbEntity
  8
A20
  6
CONTINUOUS
 62
3
100
AcDbLine
 10
133.1980914992067
 20
27.99999999999996
 30
0.000000000000000
 11
136.4503039106315
 21
29.24680258946457
 31
0.000000000000000
  0
LINE
  5
EA
100
AcDbEntity
  8
A20
  6
CONTINUOUS
 62
3
100
AcDbLine
 10
132.1732514774535
 20
30.39162394660397
 30
0.000000000000000
 11
135.5195914215704
 21
31.67451226376833
 31
0.000000000000000
  0
LINE
  5
EB
100
AcDbEntity
  8
A20
  6
CONTINUOUS
 62
3
100
AcDbLine
 10
146.7422273889570
 20
30.58390724774366
 30
0.000000000000000
 11
138.1452021915854
 21
31.94933325917312
 31
0.000000000000000
  0
LINE
  5
EC
100
AcDbEntity
  8
A20
  6
CONTINUOUS
 62
3
100
AcDbLine
 10
146.3343932109508
 20
28.01609275225320
 30
0.000000000000000
 11
137.7373680135801
 21
29.38151876368260
 31
0.000000000000000
  0
ARC
  5
ED
100
AcDbEntity
  8
A20
  6
DASHED
 62
3
100
AcDbCircle
 10
145.8720068563586
 20
29.40582591448661
 30
0.000000000000000
 40
1.299999999999985
100
AcDbArc
 50
260.9753545372712
 51
440.9753545372711
  0
LINE
  5
EE
100
AcDbEntity
  8
A20
  6
CONTINUOUS
 62
3
100
AcDbLine
 10
116.8019085008020
 20
28.00000000000002
 30
0.000000000000000
 11
113.5496960893769
 21
29.24680258946479
 31
0.000000000000000
  0
LINE
  5
EF
100
AcDbEntity
  8
A20
  6
CONTINUOUS
 62
3
100
AcDbLine
 10
118.2251586977037
 20
30.23888520287959
 30
0.000000000000000
 11
114.4804085784370
 21
31.67451226376833
 31
0.000000000000000
  0
LINE
  5
F0
100
AcDbEntity
  8
A20
  6
CONTINUOUS
 62
3
100
AcDbLine
 10
103.2577726110517
 20
30.58390724774376
 30
0.000000000000000
 11
111.8547978084222
 21
31.94933325917306
 31
0.000000000000000
  0
LINE
  5
F1
100
AcDbEntity
  8
A20
  6
CONTINUOUS
 62
3
100
AcDbLine
 10
103.6656067890579
 20
28.01609275225338
 30
0.000000000000000
 11
112.2626319864284
 21
29.38151876368273
 31
0.000000000000000
  0
ARC
  5
F2
100
AcDbEntity
  8
A20
  6
CONTINUOUS
 62
3
100
AcDbCircle
 10
104.1279931436497
 20
29.40582591448673
 30
0.000000000000000
 40
1.299999999999985
100
AcDbArc
 50
99.02464546272961
 51
279.0246454627296
  0
CIRCLE
  5
F3
100
AcDbEntity
  8
A20
  6
CONTINUOUS
 62
3
100
AcDbCircle
 10
146.5383102999544
 20
29.30000000000051
 30
0.000000000000000
 40
1.300000000000000
  0
ARC
  5
F4
100
AcDbEntity
  8
A20
  6
CONTINUOUS
 62
3
100
AcDbCircle
 10
103.4616897000545
 20
29.30000000000040
 30
0.000000000000000
 40
1.300000000000000
100
AcDbArc
 50
99.02464546272913
 51
279.0246454627302
  0
ARC
  5
F5
100
AcDbEntity
  8
A20
  6
CONTINUOUS
 62
3
100
AcDbCircle
 10
104.0000000000046
 20
186.8665863748414
 30
0.000000000000000
 40
2.863531822472157
100
AcDbArc
 50
35.53767779200084
 51
76.53743939173309
  0
ARC
  5
F6
100
AcDbEntity
  8
A20
  6
CONTINUOUS
 62
3
100
AcDbCircle
 10
94.66677907523658
 20
180.2000000000005
 30
0.000000000000000
 40
14.33316070590794
100
AcDbArc
 50
324.4623222079991
 51
395.5376777920009
  0
ARC
  5
F7
100
AcDbEntity
  8
A20
  6
CONTINUOUS
 62
3
100
AcDbCircle
 10
104.0000000000046
 20
173.5334136251596
 30
0.000000000000000
 40
2.863531822472159
100
AcDbArc
 50
242.2496545546281
 51
324.4623222079992
  0
ARC
  5
F8
100
AcDbEntity
  8
A20
  6
CONTINUOUS
 62
3
100
AcDbCircle
 10
104.0000000000046
 20
186.8665863748414
 30
0.000000000000000
 40
2.863531822472157
100
AcDbArc
 50
90.00000000000000
 51
144.4623222080521
  0
ARC
  5
F9
100
AcDbEntity
  8
A20
  6
CONTINUOUS
 62
3
100
AcDbCircle
 10
113.3332209247909
 20
180.2000000000005
 30
0.000000000000000
 40
14.33316070590794
100
AcDbArc
 50
144.4623222080520
 51
215.5376777919479
  0
ARC
  5
FA
100
AcDbEntity
  8
A20
  6
CONTINUOUS
 62
3
100
AcDbCircle
 10
104.0000000000046
 20
173.5334136251596
 30
0.000000000000000
 40
2.863531822472159
100
AcDbArc
 50
215.5376777919479
 51
225.6988392796171
  0
LINE
  5
FB
100
AcDbEntity
  8
A20
  6
CONTINUOUS
 62
3
100
AcDbLine
 10
107.0474195435258
 20
187.4221352394115
 30
0.000000000000000
 11
102.2578558316995
 21
187.4221352394115
 31
0.000000000000000
  0
LINE
  5
FC
100
AcDbEntity
  8
A20
  6
CONTINUOUS
 62
3
100
AcDbLine
 10
101.9500260454088
 20
186.3110375102714
 30
0.000000000000000
 11
106.0499739546186
 21
186.3110375102714
 31
0.000000000000000
  0
ARC
  5
FD
100
AcDbEntity
  8
A20
  6
CONTINUOUS
 62
3
100
AcDbCircle
 10
106.0499739546186
 20
185.7554886457012
 30
0.000000000000000
 40
0.5555488645700752
100
AcDbArc
 50
26.01436599963663
 51
90.00000000000000
  0
ARC
  5
FE
100
AcDbEntity
  8
A20
  6
CONTINUOUS
 62
3
100
AcDbCircle
 10
94.66677907523658
 20
180.2000000000005
 30
0.000000000000000
 40
13.22206297676779
100
AcDbArc
 50
22.94395355653779
 51
26.01436599963663
  0
ARC
  5
FF
100
AcDbEntity
  8
A20
  6
CONTINUOUS
 62
3
100
AcDbCircle
 10
106.7404805114053
 20
185.3110495540452
 30
0.000000000000000
 40
0.1111097729140150
100
AcDbArc
 50
270.0000000000000
 51
382.9439535565375
  0
LINE
  5
100
100
AcDbEntity
  8
A20
  6
CONTINUOUS
 62
3
100
AcDbLine
 10
106.7404805114053
 20
185.1999397811312
 30
0.000000000000000
 11
101.2595194886220
 21
185.1999397811312
 31
0.000000000000000
  0
ARC
  5
101
100
AcDbEntity
  8
A20
  6
CONTINUOUS
 62
3
100
AcDbCircle
 10
101.2595194886220
 20
185.3110495540452
 30
0.000000000000000
 40
0.1111097729140150
100
AcDbArc
 50
157.0560464434623
 51
270.0000000000000
  0
ARC
  5
102
100
AcDbEntity
  8
A20
  6
CONTINUOUS
 62
3
100
AcDbCircle
 10
113.3332209247909
 20
180.2000000000005
 30
0.000000000000000
 40
13.22206297676779
100
AcDbArc
 50
153.9856340003634
 51
157.0560464434622
  0
ARC
  5
103
100
AcDbEntity
  8
A20
  6
CONTINUOUS
 62
3
100
AcDbCircle
 10
101.9500260454089
 20
185.7554886457012
 30
0.000000000000000
 40
0.5555488645700752
100
AcDbArc
 50
90.00000000000000
 51
153.9856340003634
  0
LINE
  5
104
100
AcDbEntity
  8
A20
  6
CONTINUOUS
 62
3
100
AcDbLine
 10
105.3333172749727
 20
182.9777443228509
 30
0.000000000000000
 11
107.4555091109761
 21
182.9777443228509
 31
0.000000000000000
  0
ARC
  5
105
100
AcDbEntity
  8
A20
  6
CONTINUOUS
 62
3
100
AcDbCircle
 10
107.4555091109761
 20
183.0888540957649
 30
0.000000000000000
 40
0.1111097729140150
100
AcDbArc
 50
270.0000000000000
 51
372.7289438731227
  0
ARC
  5
106
100
AcDbEntity
  8
A20
  6
CONTINUOUS
 62
3
100
AcDbCircle
 10
94.66677907523658
 20
180.2000000000005
 30
0.000000000000000
 40
13.22206297676779
100
AcDbArc
 50
12.72894387312263
 51
13.26811897055621
  0
ARC
  5
107
100
AcDbEntity
  8
A20
  6
CONTINUOUS
 62
3
100
AcDbCircle
 10
94.66677907523658
 20
180.2000000000005
 30
0.000000000000000
 40
13.22206297676779
100
AcDbArc
 50
13.26811897055625
 51
15.25752329045639
  0
ARC
  5
108
100
AcDbEntity
  8
A20
  6
CONTINUOUS
 62
3
100
AcDbCircle
 10
106.8868337511043
 20
183.5332931874210
 30
0.000000000000000
 40
0.5555488645700752
100
AcDbArc
 50
15.25752329045640
 51
90.00000000000000
  0
LINE
  5
109
100
AcDbEntity
  8
A20
  6
CONTINUOUS
 62
3
100
AcDbLine
 10
106.8868337511042
 20
184.0888420519912
 30
0.000000000000000
 11
101.1131662489231
 21
184.0888420519912
 31
0.000000000000000
  0
ARC
  5
10A
100
AcDbEntity
  8
A20
  6
CONTINUOUS
 62
3
100
AcDbCircle
 10
101.1131662489231
 20
183.5332931874210
 30
0.000000000000000
 40
0.5555488645700752
100
AcDbArc
 50
90.00000000000000
 51
164.7424767095436
  0
ARC
  5
10B
100
AcDbEntity
  8
A20
  6
CONTINUOUS
 62
3
100
AcDbCircle
 10
113.3332209247909
 20
180.2000000000005
 30
0.000000000000000
 40
13.22206297676779
100
AcDbArc
 50
164.7424767095436
 51
164.7937121239420
  0
ARC
  5
10C
100
AcDbEntity
  8
A20
  6
CONTINUOUS
 62
3
100
AcDbCircle
 10
113.3332209247909
 20
180.2000000000005
 30
0.000000000000000
 40
13.22206297676779
100
AcDbArc
 50
164.7937121239420
 51
167.2710561268773
  0
ARC
  5
10D
100
AcDbEntity
  8
A20
  6
CONTINUOUS
 62
3
100
AcDbCircle
 10
100.5444908890513
 20
183.0888540957649
 30
0.000000000000000
 40
0.1111097729140150
100
AcDbArc
 50
167.2710561268775
 51
270.0000000000000
  0
LINE
  5
10E
100
AcDbEntity
  8
A20
  6
CONTINUOUS
 62
3
100
AcDbLine
 10
100.5444908890513
 20
182.9777443228509
 30
0.000000000000000
 11
102.6666827250365
 21
182.9777443228509
 31
0.000000000000000
  0
LINE
  5
10F
100
AcDbEntity
  8
A20
  6
CONTINUOUS
 62
3
100
AcDbLine
 10
107.7833807118376
 20
181.8666465937108
 30
0.000000000000000
 11
100.2166192881900
 21
181.8666465937108
 31
0.000000000000000
  0
LINE
  5
110
100
AcDbEntity
  8
A20
  6
CONTINUOUS
 62
3
100
AcDbLine
 10
107.8771657017016
 20
180.7555488645705
 30
0.000000000000000
 11
100.1228342983259
 21
180.7555488645705
 31
0.000000000000000
  0
LINE
  5
111
100
AcDbEntity
  8
A20
  6
CONTINUOUS
 62
3
100
AcDbLine
 10
104.0000000000046
 20
180.7555488645705
 30
0.000000000000000
 11
104.0000000000046
 21
181.8666465937108
 31
0.000000000000000
  0
LINE
  5
112
100
AcDbEntity
  8
A20
  6
CONTINUOUS
 62
3
100
AcDbLine
 10
107.8771657017016
 20
179.6444511354305
 30
0.000000000000000
 11
100.1228342983259
 21
179.6444511354305
 31
0.000000000000000
  0
LINE
  5
113
100
AcDbEntity
  8
A20
  6
CONTINUOUS
 62
3
100
AcDbLine
 10
105.3333172749727
 20
177.4222556771501
 30
0.000000000000000
 11
107.1368403060286
 21
177.4222556771501
 31
0.000000000000000
  0
ARC
  5
114
100
AcDbEntity
  8
A20
  6
CONTINUOUS
 62
3
100
AcDbCircle
 10
107.1368403060286
 20
177.9778045417202
 30
0.000000000000000
 40
0.5555488645700752
100
AcDbArc
 50
270.0000000000000
 51
349.8958172838749
  0
ARC
  5
115
100
AcDbEntity
  8
A20
  6
CONTINUOUS
 62
3
100
AcDbCircle
 10
94.66677907523658
 20
180.2000000000005
 30
0.000000000000000
 40
13.22206297676779
100
AcDbArc
 50
349.8958172838750
 51
352.2070756645776
  0
ARC
  5
116
100
AcDbEntity
  8
A20
  6
CONTINUOUS
 62
3
100
AcDbCircle
 10
107.6566472891396
 20
178.4222436333763
 30
0.000000000000000
 40
0.1111097729140150
100
AcDbArc
 50
352.2070756645773
 51
450.0000000000000
  0
LINE
  5
117
100
AcDbEntity
  8
A20
  6
CONTINUOUS
 62
3
100
AcDbLine
 10
107.6566472891396
 20
178.5333534062903
 30
0.000000000000000
 11
100.3433527108879
 21
178.5333534062903
 31
0.000000000000000
  0
ARC
  5
118
100
AcDbEntity
  8
A20
  6
CONTINUOUS
 62
3
100
AcDbCircle
 10
100.3433527108879
 20
178.4222436333763
 30
0.000000000000000
 40
0.1111097729140150
100
AcDbArc
 50
90.00000000000000
 51
187.7929243354228
  0
ARC
  5
119
100
AcDbEntity
  8
A20
  6
CONTINUOUS
 62
3
100
AcDbCircle
 10
113.3332209247909
 20
180.2000000000005
 30
0.000000000000000
 40
13.22206297676779
100
AcDbArc
 50
187.7929243354224
 51
190.1041827161250
  0
ARC
  5
11A
100
AcDbEntity
  8
A20
  6
CONTINUOUS
 62
3
100
AcDbCircle
 10
100.8631596939990
 20
177.9778045417202
 30
0.000000000000000
 40
0.5555488645700752
100
AcDbArc
 50
190.1041827161250
 51
270.0000000000000
  0
LINE
  5
11B
100
AcDbEntity
  8
A20
  6
CONTINUOUS
 62
3
100
AcDbLine
 10
100.8631596939990
 20
177.4222556771501
 30
0.000000000000000
 11
104.0000000000046
 21
177.4222556771501
 31
0.000000000000000
  0
LINE
  5
11C
100
AcDbEntity
  8
A20
  6
CONTINUOUS
 62
3
100
AcDbLine
 10
104.0000000000046
 20
177.4222556771501
 30
0.000000000000000
 11
104.0000000000046
 21
177.9778045417202
 31
0.000000000000000
  0
LINE
  5
11D
100
AcDbEntity
  8
A20
  6
CONTINUOUS
 62
3
100
AcDbLine
 10
107.6523698503933
 20
176.3111579480098
 30
0.000000000000000
 11
100.6959800528171
 21
176.3111579480098
 31
0.000000000000000
  0
LINE
  5
11E
100
AcDbEntity
  8
A20
  6
CONTINUOUS
 62
3
100
AcDbLine
 10
107.1289177758573
 20
175.2000602188698
 30
0.000000000000000
 11
104.5555488645747
 21
175.2000602188698
 31
0.000000000000000
  0
ARC
  5
11F
100
AcDbEntity
  8
A20
  6
CONTINUOUS
 62
3
100
AcDbCircle
 10
104.5555488645747
 20
174.6445113542998
 30
0.000000000000000
 40
0.5555488645700778
100
AcDbArc
 50
90.00000000000000
 51
270.0000000000000
  0
LINE
  5
120
100
AcDbEntity
  8
A20
  6
CONTINUOUS
 62
3
100
AcDbLine
 10
104.5555488645747
 20
174.0889624897296
 30
0.000000000000000
 11
106.9291910866928
 21
174.0889624897296
 31
0.000000000000000
  0
LINE
  5
121
100
AcDbEntity
  8
A20
  6
CONTINUOUS
 62
3
100
AcDbLine
 10
104.0000000000046
 20
174.6445113542998
 30
0.000000000000000
 11
101.3349087406085
 21
174.6445113542998
 31
0.000000000000000
  0
LINE
  5
122
100
AcDbEntity
  8
A20
  6
CONTINUOUS
 62
3
100
AcDbLine
 10
101.9207849964432
 20
173.5232301565086
 30
0.000000000000000
 11
106.6051178937844
 21
172.2680669395833
 31
0.000000000000000
  0
LINE
  5
123
100
AcDbEntity
  8
A20
  6
CONTINUOUS
 62
3
100
AcDbLine
 10
104.0000000000046
 20
170.6698818026875
 30
0.000000000000000
 11
104.0000000000046
 21
172.9661061754116
 31
0.000000000000000
  0
LINE
  5
124
100
AcDbEntity
  8
A20
  6
CENTER
 62
3
100
AcDbLine
 10
125.0000000000048
 20
42.20000000000053
 30
0.000000000000000
 11
125.0000000000049
 21
23.50000000000082
 31
0.000000000000000
  0
LINE
  5
125
100
AcDbEntity
  8
A20
  6
CONTINUOUS
 62
3
100
AcDbLine
 10
129.0000000000048
 20
165.6168736291660
 30
0.000000000000000
 11
129.0000000000048
 21
165.8179187008247
 31
0.000000000000000
  0
LINE
  5
126
100
AcDbEntity
  8
A20
  6
CONTINUOUS
 62
3
100
AcDbLine
 10
129.0000000000048
 20
168.4315046323874
 30
0.000000000000000
 11
129.0000000000048
 21
168.6325497040463
 31
0.000000000000000
  0
LINE
  5
127
100
AcDbEntity
  8
A20
  6
CONTINUOUS
 62
3
100
AcDbLine
 10
129.0000000000048
 20
171.2461356356090
 30
0.000000000000000
 11
129.0000000000048
 21
171.4471807072678
 31
0.000000000000000
  0
LINE
  5
128
100
AcDbEntity
  8
A20
  6
CONTINUOUS
 62
3
100
AcDbLine
 10
129.0000000000048
 20
174.0607666388306
 30
0.000000000000000
 11
129.0000000000048
 21
174.2618117104894
 31
0.000000000000000
  0
LINE
  5
129
100
AcDbEntity
  8
A20
  6
CONTINUOUS
 62
3
100
AcDbLine
 10
129.0000000000048
 20
176.8753976420520
 30
0.000000000000000
 11
129.0000000000048
 21
177.0764427137108
 31
0.000000000000000
  0
LINE
  5
12A
100
AcDbEntity
  8
A20
  6
CONTINUOUS
 62
3
100
AcDbLine
 10
129.0000000000048
 20
179.6900286452734
 30
0.000000000000000
 11
129.0000000000048
 21
179.8910737169323
 31
0.000000000000000
  0
LINE
  5
12B
100
AcDbEntity
  8
A20
  6
CONTINUOUS
 62
3
100
AcDbLine
 10
129.0000000000048
 20
182.5046596484950
 30
0.000000000000000
 11
129.0000000000048
 21
182.7057047201537
 31
0.000000000000000
  0
LINE
  5
12C
100
AcDbEntity
  8
A20
  6
CONTINUOUS
 62
3
100
AcDbLine
 10
129.0000000000048
 20
185.3192906517164
 30
0.000000000000000
 11
129.0000000000048
 21
185.5203357233752
 31
0.000000000000000
  0
LINE
  5
12D
100
AcDbEntity
  8
A20
  6
CONTINUOUS
 62
3
100
AcDbLine
 10
129.0000000000048
 20
188.1339216549379
 30
0.000000000000000
 11
129.0000000000048
 21
188.3349667265966
 31
0.000000000000000
  0
LINE
  5
12E
100
AcDbEntity
  8
A20
  6
CONTINUOUS
 62
3
100
AcDbLine
 10
129.0000000000048
 20
193.7631836613808
 30
0.000000000000000
 11
129.0000000000048
 21
193.9642287330706
 31
0.000000000000000
  0
LINE
  5
12F
100
AcDbEntity
  8
A20
  6
CONTINUOUS
 62
3
100
AcDbLine
 10
129.0000000000048
 20
190.9485526581593
 30
0.000000000000000
 11
129.0000000000048
 21
191.1495977298181
 31
0.000000000000000
  0
LINE
  5
130
100
AcDbEntity
  8
A20
  6
CONTINUOUS
 62
3
100
AcDbLine
 10
121.0000000000048
 20
194.7831263708351
 30
0.000000000000000
 11
121.0000000000048
 21
194.5820812991764
 31
0.000000000000000
  0
LINE
  5
131
100
AcDbEntity
  8
A20
  6
CONTINUOUS
 62
3
100
AcDbLine
 10
121.0000000000048
 20
191.9684953676137
 30
0.000000000000000
 11
121.0000000000048
 21
191.7674502959550
 31
0.000000000000000
  0
LINE
  5
132
100
AcDbEntity
  8
A20
  6
CONTINUOUS
 62
3
100
AcDbLine
 10
121.0000000000048
 20
189.1538643643923
 30
0.000000000000000
 11
121.0000000000048
 21
188.9528192927335
 31
0.000000000000000
  0
LINE
  5
133
100
AcDbEntity
  8
A20
  6
CONTINUOUS
 62
3
100
AcDbLine
 10
121.0000000000048
 20
186.3392333611708
 30
0.000000000000000
 11
121.0000000000048
 21
186.1381882895121
 31
0.000000000000000
  0
LINE
  5
134
100
AcDbEntity
  8
A20
  6
CONTINUOUS
 62
3
100
AcDbLine
 10
121.0000000000048
 20
183.5246023579493
 30
0.000000000000000
 11
121.0000000000048
 21
183.3235572862906
 31
0.000000000000000
  0
LINE
  5
135
100
AcDbEntity
  8
A20
  6
CONTINUOUS
 62
3
100
AcDbLine
 10
121.0000000000048
 20
180.7099713547279
 30
0.000000000000000
 11
121.0000000000048
 21
180.5089262830691
 31
0.000000000000000
  0
LINE
  5
136
100
AcDbEntity
  8
A20
  6
CONTINUOUS
 62
3
100
AcDbLine
 10
121.0000000000048
 20
177.8953403515064
 30
0.000000000000000
 11
121.0000000000048
 21
177.6942952798477
 31
0.000000000000000
  0
LINE
  5
137
100
AcDbEntity
  8
A20
  6
CONTINUOUS
 62
3
100
AcDbLine
 10
121.0000000000048
 20
175.0807093482850
 30
0.000000000000000
 11
121.0000000000048
 21
174.8796642766261
 31
0.000000000000000
  0
LINE
  5
138
100
AcDbEntity
  8
A20
  6
CONTINUOUS
 62
3
100
AcDbLine
 10
121.0000000000048
 20
172.2660783450634
 30
0.000000000000000
 11
121.0000000000048
 21
172.0650332734046
 31
0.000000000000000
  0
LINE
  5
139
100
AcDbEntity
  8
A20
  6
CONTINUOUS
 62
3
100
AcDbLine
 10
121.0000000000048
 20
169.4514473418419
 30
0.000000000000000
 11
121.0000000000048
 21
169.2504022701831
 31
0.000000000000000
  0
LINE
  5
13A
100
AcDbEntity
  8
A20
  6
CONTINUOUS
 62
3
100
AcDbLine
 10
121.0000000000048
 20
166.6368163386204
 30
0.000000000000000
 11
121.0000000000048
 21
166.4357712669652
 31
0.000000000000000
  0
ARC
  5
13B
100
AcDbEntity
  8
A20
  6
CONTINUOUS
 62
3
100
AcDbCircle
 10
115.6000000000045
 20
279.2000000000005
 30
0.000000000000000
 40
1.000000000000000
100
AcDbArc
 50
0.000000000000000
 51
90.00000000000000
  0
ARC
  5
13C
100
AcDbEntity
  8
A20
  6
CONTINUOUS
 62
3
100
AcDbCircle
 10
117.6000000000045
 20
254.7000000000005
 30
0.000000000000000
 40
1.000000000000000
100
AcDbArc
 50
180.0000000000000
 51
270.0000000000000
  0
ARC
  5
13D
100
AcDbEntity
  8
A20
  6
CONTINUOUS
 62
3
100
AcDbCircle
 10
132.4000000000046
 20
252.7000000000005
 30
0.000000000000000
 40
1.000000000000000
100
AcDbArc
 50
0.000000000000000
 51
90.00000000000000
  0
ARC
  5
13E
100
AcDbEntity
  8
A20
  6
CONTINUOUS
 62
3
100
AcDbCircle
 10
132.4000000000046
 20
228.2000000000005
 30
0.000000000000000
 40
1.000000000000000
100
AcDbArc
 50
270.0000000000000
 51
360.0000000000000
  0
ARC
  5
13F
100
AcDbEntity
  8
A20
  6
CONTINUOUS
 62
3
100
AcDbCircle
 10
114.0000000000046
 20
226.2000000000005
 30
0.000000000000000
 40
1.000000000000000
100
AcDbArc
 50
90.00000000000000
 51
180.0000000000000
  0
ARC
  5
140
100
AcDbEntity
  8
A20
  6
CONTINUOUS
 62
3
100
AcDbCircle
 10
114.0000000000046
 20
134.2000000000005
 30
0.000000000000000
 40
1.000000000000000
100
AcDbArc
 50
180.0000000000000
 51
270.0000000000000
  0
ARC
  5
141
100
AcDbEntity
  8
A20
  6
CONTINUOUS
 62
3
100
AcDbCircle
 10
132.4000000000046
 20
132.2000000000005
 30
0.000000000000000
 40
1.000000000000000
100
AcDbArc
 50
0.000000000000000
 51
90.00000000000000
  0
ARC
  5
142
100
AcDbEntity
  8
A20
  6
CONTINUOUS
 62
3
100
AcDbCircle
 10
132.4000000000046
 20
107.7000000000005
 30
0.000000000000000
 40
1.000000000000000
100
AcDbArc
 50
270.0000000000000
 51
360.0000000000000
  0
ARC
  5
143
100
AcDbEntity
  8
A20
  6
CONTINUOUS
 62
3
100
AcDbCircle
 10
117.6000000000045
 20
105.7000000000005
 30
0.000000000000000
 40
1.000000000000000
100
AcDbArc
 50
90.00000000000000
 51
180.0000000000000
  0
ARC
  5
144
100
AcDbEntity
  8
A20
  6
CONTINUOUS
 62
3
100
AcDbCircle
 10
115.6000000000045
 20
81.20000000000049
 30
0.000000000000000
 40
1.000000000000000
100
AcDbArc
 50
270.0000000000000
 51
360.0000000000000
  0
ARC
  5
145
100
AcDbEntity
  8
A20
  6
CONTINUOUS
 62
3
100
AcDbCircle
 10
112.6547802345111
 20
26.91246636417286
 30
0.000000000000000
 40
5.100000000000000
100
AcDbArc
 50
69.02464546272888
 51
99.02464546272887
  0
ARC
  5
146
100
AcDbEntity
  8
A20
  6
CONTINUOUS
 62
3
100
AcDbCircle
 10
137.3452197654964
 20
26.91246636417286
 30
0.000000000000000
 40
5.100000000000000
100
AcDbArc
 50
80.97535453727113
 51
110.9753545372711
  0
ARC
  5
147
100
AcDbEntity
  8
A20
  6
CONTINUOUS
 62
3
100
AcDbCircle
 10
137.3452197654972
 20
26.91246636417263
 30
0.000000000000000
 40
2.500000000000000
100
AcDbArc
 50
80.97535453727100
 51
110.9753545372719
  0
ARC
  5
148
100
AcDbEntity
  8
A20
  6
CONTINUOUS
 62
3
100
AcDbCircle
 10
112.6547802345112
 20
26.91246636417286
 30
0.000000000000000
 40
2.500000000000000
100
AcDbArc
 50
69.02464546272815
 51
99.02464546272920
  0
INSERT
  5
14E
100
AcDbEntity
  8
DXF40
  6
CONTINUOUS
 62
3
100
AcDbBlockReference
  2
$$BALLOON$$0
 10
100.0000000000049
 20
27.99999999999974
 30
0.000000000000000
 50
0.000000000000000
  0
INSERT
  5
154
100
AcDbEntity
  8
DXF40
  6
CONTINUOUS
 62
3
100
AcDbBlockReference
  2
$$BALLOON$$1
 10
123.0000000000046
 20
35.00000000000070
 30
0.000000000000000
 50
0.000000000000000
  0
INSERT
  5
15A
100
AcDbEntity
  8
DXF40
  6
CONTINUOUS
 62
3
100
AcDbBlockReference
  2
$$BALLOON$$2
 10
150.0000000000044
 20
28.00000000000109
 30
0.000000000000000
 50
0.000000000000000
  0
INSERT
  5
160
100
AcDbEntity
  8
DXF40
  6
CONTINUOUS
 62
3
100
AcDbBlockReference
  2
$$BALLOON$$3
 10
145.0000000000048
 20
30.86061721893533
 30
0.000000000000000
 50
0.000000000000000
  0
DIMENSION
  5
16B
100
AcDbEntity
  8
DXF30
  6
CONTINUOUS
 62
3
100
AcDbDimension
  2
*D0
 10
165.0000000000049
 20
27.99999999999999
 30
0.000000000000000
 11
164.5000000000049
 21
33.50000000000010
 31
0.000000000000000
 70
160
 71
5
  1
\A1;ｔ3
 42
3.000000
  3
DXF001
100
AcDbAlignedDimension
 13
155.0000000000001
 23
25.00000000000010
 33
0.000000000000000
 14
155.0000000000001
 24
27.99999999999999
 34
0.000000000000000
 50
90.00000000000000
100
AcDbRotatedDimension
1001
ACAD
1000
DSTYLE
1002
{
1070
   173
1070
     1
1070
     6
1000
_OPEN
1070
     7
1000
_OPEN
1070
    41
1040
2.000000
1070
   289
1070
     0
1070
   340
1005
16C
1002
}
  0
DIMENSION
  5
177
100
AcDbEntity
  8
DXF30
  6
CONTINUOUS
 62
3
100
AcDbDimension
  2
*D1
 10
123.6838758131565
 20
28.22272358374585
 30
0.000000000000000
 11
139.1350000798749
 21
61.20000000000051
 31
0.000000000000000
 70
163
 71
5
 42
8.000000
  3
DXF001
100
AcDbDiametricDimension
 15
126.3161241868531
 25
35.77727641625501
 35
0.000000000000000
1001
ACAD
1000
DSTYLE
1002
{
1070
    73
1070
     1
1070
    74
1070
     1
1070
   289
1070
     2
1070
   173
1070
     1
1070
     6
1000
_OPEN
1070
     7
1000
_OPEN
1070
    41
1040
2.000000
1002
}
  0
DIMENSION
  5
180
100
AcDbEntity
  8
DXF30
  6
CONTINUOUS
 62
3
100
AcDbDimension
  2
*D2
 10
104.0000000000148
 20
292.2000000000006
 30
0.000000000000000
 11
114.5000000000098
 21
292.7000000000006
 31
0.000000000000000
 70
32
 71
5
 42
21.000000
  3
DXF001
100
AcDbAlignedDimension
 13
125.0000000000048
 23
283.7000000000006
 33
0.000000000000000
 14
104.0000000000148
 24
245.9500000000005
 34
0.000000000000000
100
AcDbRotatedDimension
1001
ACAD
1000
DSTYLE
1002
{
1070
   173
1070
     1
1070
     6
1000
_OPEN
1070
     7
1000
_OPEN
1070
    41
1040
2.000000
1002
}
  0
DIMENSION
  5
189
100
AcDbEntity
  8
DXF30
  6
CONTINUOUS
 62
3
100
AcDbDimension
  2
*D3
 10
145.9999999999944
 20
292.2000000000006
 30
0.000000000000000
 11
135.4999999999996
 21
292.7000000000006
 31
0.000000000000000
 70
32
 71
5
 42
21.000000
  3
DXF001
100
AcDbAlignedDimension
 13
125.0000000000048
 23
283.7000000000006
 33
0.000000000000000
 14
145.9999999999944
 24
255.9500000000005
 34
0.000000000000000
100
AcDbRotatedDimension
1001
ACAD
1000
DSTYLE
1002
{
1070
   173
1070
     1
1070
     6
1000
_OPEN
1070
     7
1000
_OPEN
1070
    41
1040
2.000000
1002
}
  0
DIMENSION
  5
192
100
AcDbEntity
  8
DXF30
  6
CONTINUOUS
 62
3
100
AcDbDimension
  2
*D4
 10
85.00000000000455
 20
280.2000000000005
 30
0.000000000000000
 11
84.50000000000455
 21
260.2000000000005
 31
0.000000000000000
 70
32
 71
5
 42
40.000000
  3
DXF001
100
AcDbAlignedDimension
 13
98.25000000001478
 23
240.2000000000005
 33
0.000000000000000
 14
98.00000000000466
 24
280.2000000000005
 34
0.000000000000000
 50
90.00000000000000
100
AcDbRotatedDimension
1001
ACAD
1000
DSTYLE
1002
{
1070
   173
1070
     1
1070
     6
1000
_OPEN
1070
     7
1000
_OPEN
1070
    41
1040
2.000000
1002
}
  0
DIMENSION
  5
19B
100
AcDbEntity
  8
DXF30
  6
CONTINUOUS
 62
3
100
AcDbDimension
  2
*D5
 10
85.00000000000455
 20
240.2000000000005
 30
0.000000000000000
 11
84.50000000000458
 21
180.2000000000005
 31
0.000000000000000
 70
32
 71
5
 42
120.000000
  3
DXF001
100
AcDbAlignedDimension
 13
98.25000000001478
 23
120.2000000000005
 33
0.000000000000000
 14
98.25000000001478
 24
240.2000000000005
 34
0.000000000000000
 50
90.00000000000000
100
AcDbRotatedDimension
1001
ACAD
1000
DSTYLE
1002
{
1070
   173
1070
     1
1070
     6
1000
_OPEN
1070
     7
1000
_OPEN
1070
    41
1040
2.000000
1002
}
  0
DIMENSION
  5
1A4
100
AcDbEntity
  8
DXF30
  6
CONTINUOUS
 62
3
100
AcDbDimension
  2
*D6
 10
165.0000000000047
 20
280.2000000000005
 30
0.000000000000000
 11
164.5000000000047
 21
265.2000000000005
 31
0.000000000000000
 70
32
 71
5
 42
30.000000
  3
DXF001
100
AcDbAlignedDimension
 13
151.7499999999944
 23
250.2000000000005
 33
0.000000000000000
 14
152.0000000000047
 24
280.2000000000005
 34
0.000000000000000
 50
90.00000000000000
100
AcDbRotatedDimension
1001
ACAD
1000
DSTYLE
1002
{
1070
   173
1070
     1
1070
     6
1000
_OPEN
1070
     7
1000
_OPEN
1070
    41
1040
2.000000
1002
}
  0
DIMENSION
  5
1AD
100
AcDbEntity
  8
DXF30
  6
CONTINUOUS
 62
3
100
AcDbDimension
  2
*D7
 10
165.0000000000047
 20
110.2000000000005
 30
0.000000000000000
 11
164.5000000000047
 21
180.2000000000005
 31
0.000000000000000
 70
32
 71
5
 42
140.000000
  3
DXF001
100
AcDbAlignedDimension
 13
151.7499999999944
 23
250.2000000000005
 33
0.000000000000000
 14
151.7499999999944
 24
110.2000000000005
 34
0.000000000000000
 50
90.00000000000000
100
AcDbRotatedDimension
1001
ACAD
1000
DSTYLE
1002
{
1070
   173
1070
     1
1070
     6
1000
_OPEN
1070
     7
1000
_OPEN
1070
    41
1040
2.000000
1002
}
  0
DIMENSION
  5
1B6
100
AcDbEntity
  8
DXF30
  6
CONTINUOUS
 62
3
100
AcDbDimension
  2
*D8
 10
175.0000000000047
 20
80.20000000000049
 30
0.000000000000000
 11
174.5000000000043
 21
180.2000000000005
 31
0.000000000000000
 70
32
 71
5
 42
200.000000
  3
DXF001
100
AcDbAlignedDimension
 13
152.0000000000047
 23
280.2000000000005
 33
0.000000000000000
 14
152.0000000000047
 24
80.20000000000049
 34
0.000000000000000
 50
90.00000000000000
100
AcDbRotatedDimension
1001
ACAD
1000
DSTYLE
1002
{
1070
   173
1070
     1
1070
     6
1000
_OPEN
1070
     7
1000
_OPEN
1070
    41
1040
2.000000
1002
}
  0
DIMENSION
  5
1BD
100
AcDbEntity
  8
DXF30
  6
CONTINUOUS
 62
3
100
AcDbDimension
  2
*D9
 10
107.4583672526443
 20
122.6702623233054
 30
0.000000000000000
 11
80.88749977946736
 21
110.7000000000005
 31
0.000000000000000
 70
163
 71
5
  1
\A1;4-\U+22058.5
 42
8.500000
  3
DXF001
100
AcDbDiametricDimension
 15
100.5416327473853
 25
117.7297376766955
 35
0.000000000000000
1001
ACAD
1000
DSTYLE
1002
{
1070
    73
1070
     1
1070
    74
1070
     1
1070
   172
1070
     0
1070
   173
1070
     1
1070
     6
1000
_OPEN
1070
     7
1000
_OPEN
1070
    41
1040
2.000000
1002
}
  0
DIMENSION
  5
1C6
100
AcDbEntity
  8
DXF30
  6
CONTINUOUS
 62
3
100
AcDbDimension
  2
*D10
 10
155.0000000000046
 20
302.2000000000006
 30
0.000000000000000
 11
125.0000000000046
 21
302.7000000000006
 31
0.000000000000000
 70
32
 71
5
 42
60.000000
  3
DXF001
100
AcDbAlignedDimension
 13
95.00000000000456
 23
277.2000000000005
 33
0.000000000000000
 14
155.0000000000046
 24
277.2000000000005
 34
0.000000000000000
100
AcDbRotatedDimension
1001
ACAD
1000
DSTYLE
1002
{
1070
   173
1070
     1
1070
     6
1000
_OPEN
1070
     7
1000
_OPEN
1070
    41
1040
2.000000
1002
}
  0
ENDSEC
  0
SECTION
  2
OBJECTS
  0
DICTIONARY
  5
207
100
AcDbDictionary
  3
ACAD_GROUP
350
208
  3
ACAD_LAYOUT
350
209
  3
ACAD_MLINESTYLE
350
20A
  0
DICTIONARY
  5
208
102
{ACAD_REACTORS
330
207
102
}
330
207
100
AcDbDictionary
  0
DICTIONARY
  5
209
102
{ACAD_REACTORS
330
207
102
}
330
207
100
AcDbDictionary
  3
Model
350
20B
  3
ﾚｲｱｳﾄ1
350
20C
  3
ﾚｲｱｳﾄ2
350
20D
  0
DICTIONARY
  5
20A
102
{ACAD_REACTORS
330
207
102
}
330
207
100
AcDbDictionary
  3
STANDARD
350
20E
  0
LAYOUT
  5
20B
102
{ACAD_REACTORS
330
209
102
}
330
209
100
AcDbPlotSettings
 70
11952
  4
A3
 44
297.000000
 45
420.000000
 73
  0
 72
  1
100
AcDbLayout
  1
Model
 71
0
330
1EF
  0
LAYOUT
  5
20C
102
{ACAD_REACTORS
330
209
102
}
330
209
100
AcDbPlotSettings
100
AcDbLayout
  1
ﾚｲｱｳﾄ1
 71
1
330
1F0
  0
LAYOUT
  5
20D
102
{ACAD_REACTORS
330
209
102
}
330
209
100
AcDbPlotSettings
100
AcDbLayout
  1
ﾚｲｱｳﾄ2
 71
2
330
1F1
  0
MLINESTYLE
  5
20E
102
{ACAD_REACTORS
330
20A
102
}
330
20A
100
AcDbMlineStyle
  2
STANDARD
 70
     0
  3

 62
   256
 51
90.00
 52
90.00
 71
     2
 49
0.50
 62
   256
  6
BYLAYER
 49
-0.50
 62
   256
  6
BYLAYER
  0
ENDSEC
  0
EOF
